Статистика раздачи
Размер:  1,45 GB   |    Зарегистрирован:  3 месяца 7 дней   |    Скачан:  0 раз

Полного источника не было: Никогда

 
   
 
 

lopster ®

Пол:
Не указан
Стаж:
3 месяца 7 дней
Сообщений:
612

Ёлки новые
«Нашли, с кем праздновать!»
- Год выхода: 2017
Выпущено: Россия / Базелевс Продакшн
Жанр: комедия, мелодрама
Продолжительность: 01:25:39-Режиссёр:
Жора Крыжовников, Дмитрий Киселёв, Александр Карпиловский, Алексей Нужный, Александр Котт-В ролях:
Иван Ургант, Сергей Светлаков, Дмитрий Нагиев, Юлия Александрова, Антон Богданов, Валентина Мазунина, Елена Яковлева, Сергей Пускепалис, Екатерина Климова, Андрей Бурковский-Описание:
В декабре 2017 будет жарко! Дружба Жени и Бори едва не сгорит в огне семейного скандала; глубоко беременная Снегурочка отправится в Одиссею по нижегородским семьям; отчаянная Галя из Новосибирска пойдет на все, чтобы провести ночь с любимым врачом; экстремальный поход в лес за елкой станет проверкой на прочность для юного хипстера из Тюмени и его потенциального отчима. Новые и хорошо знакомые герои «Ёлок» влюбляются, ссорятся и мирятся, совершают геройские поступки и попадают впросак, лишь бы найти на Новый год настоящую родственную душу, как один смелый мальчик из Хабаровска, сбежавший в поисках новой мамы в Москву. И помочь им может только чудо… или вся страна!-Релиз групп | | КиноПоиск | Сэмпл |-Качество: WEB-DLRip [WEB_DL_1080p]
Формат: AVI
Видео: 720x304 (2.37:1), 24.000 fps, XviD build 65 ~2232 kbps avg, 0.42 bit/pixel
Аудио: 48 kHz, AC3 Dolby Digital, 2/0 (L,R) ch, ~192 kbps avg-

Скриншоты


MediaInfo

Код:General
Complete name : D:\Yolki_novye_2017_WEB-DLRip_by_Dalemake.avi
Format : AVI
Format/Info : Audio Video Interleave
File size : 1.45 GiB
Duration : 1 h 25 min
Overall bit rate : 2 432 kb/s
Writing application : VirtualDubMod 1.5.10.3 | www.virtualdub-fr.org || (build 2550/release)
Writing library : VirtualDubMod build 2550/release
Video
ID : 0
Format : MPEG-4 Visual
Format profile : Advanced Simple@L5
Format settings : BVOP2 / Custom Matrix
Format settings, BVOP : 2
Format settings, QPel : No
Format settings, GMC : No warppoints
Format settings, Matrix : Custom
Codec ID : XVID
Codec ID/Hint : XviD
Duration : 1 h 25 min
Bit rate : 2 233 kb/s
Width : 720 pixels
Height : 304 pixels
Display aspect ratio : 2.35:1
Frame rate : 24.000 FPS
Color space : YUV
Chroma subsampling : 4:2:0
Bit depth : 8 bits
Scan type : Progressive
Compression mode : Lossy
Bits/(Pixel*Frame) : 0.425
Stream size : 1.34 GiB (92%)
Writing library : XviD 65
Audio
ID : 1
Format : AC-3
Format/Info : Audio Coding 3
Codec ID : 2000
Duration : 1 h 24 min
Bit rate mode : Constant
Bit rate : 192 kb/s
Channel(s) : 2 channels
Channel positions : Front: L R
Sampling rate : 48.0 kHz
Frame rate : 31.250 FPS (1536 SPF)
Bit depth : 16 bits
Compression mode : Lossy
Stream size : 116 MiB (8%)
Alignment : Split accross interleaves
Interleave, duration : 42 ms (1.01 video frame)
Interleave, preload duratio : 500 ms
Service kind : Complete Main
-
[cybertorrent.ru].t494.torrent 
Торрент: Зарегистрирован [ 2018-02-15 15:48 ] · D2363C1F4714EEC5A57B33566648C1B3490444C4

Скачать .torrent

Скачать

15 KB

Статус: проверено
Скачан: 0 раз
Размер: 1,45 GB
Профиль [ЛС]
Показать сообщения:    

Текущее время: 23-Май 07:15

Часовой пояс: UTC ± 0



Вы не можете начинать темы
Вы не можете отвечать на сообщения
Вы не можете редактировать свои сообщения
Вы не можете удалять свои сообщения
Вы не можете голосовать в опросах
Вы не можете прикреплять файлы к сообщениям
Вы можете скачивать файлы