Статистика раздачи
Размер:  745 MB   |    Зарегистрирован:  3 месяца 6 дней   |    Скачан:  0 раз

Полного источника не было: Никогда

 
   
 
 

lopster ®

Пол:
Не указан
Стаж:
3 месяца 6 дней
Сообщений:
612

Ёлки новые
Год выхода: 2017
Выпущено: Россия / Базелевс Продакшн
Жанр: комедия, мелодрама
Продолжительность: 01:25:39
Субтитры: нет-Режиссёр: Жора Крыжовников, Дмитрий Киселёв, Александр Карпиловский, Алексей Нужный, Александр Котт-В ролях: Иван Ургант, Сергей Светлаков, Дмитрий Нагиев, Юлия Александрова, Антон Богданов, Валентина Мазунина, Елена Яковлева, Сергей Пускепалис, Екатерина Климова, Андрей Бурковский-Описание: В декабре 2017 будет жарко! Дружба Жени и Бори едва не сгорит в огне семейного скандала; глубоко беременная Снегурочка отправится в Одиссею по нижегородским семьям; отчаянная Галя из Новосибирска пойдет на все, чтобы провести ночь с любимым врачом; экстремальный поход в лес за елкой станет проверкой на прочность для юного хипстера из Тюмени и его потенциального отчима. Новые и хорошо знакомые герои «Ёлок» влюбляются, ссорятся и мирятся, совершают геройские поступки и попадают впросак, лишь бы найти на Новый год настоящую родственную душу, как один смелый мальчик из Хабаровска, сбежавший в поисках новой мамы в Москву. И помочь им может только чудо… или вся страна!-Качество: WEB-DLRip
Формат: AVI
Видео: 688x288 (2.39:1), 24.000 fps, XviD build 73 ~1077 kbps avg, 0.23 bit/pixel
Аудио: 48 kHz, MPEG Layer 3, 2 ch, ~128.00 kbps avg-Сэмпл-

MediaInfo

Код:Format : AVI
Format/Info : Audio Video Interleave
File size : 745 MiB
Duration : 1 h 25 min
Overall bit rate : 1 215 kb/s
Writing application : VirtualDubMod 1.5.10.3 | www.virtualdub-fr.org || (build 2550/release)
Writing library : VirtualDubMod build 2550/release
Video
ID : 0
Format : MPEG-4 Visual
Format profile : Advanced Simple@L5
Format settings : BVOP1 / Custom Matrix
Format settings, BVOP : 1
Format settings, QPel : No
Format settings, GMC : No warppoints
Format settings, Matrix : Custom
Codec ID : XVID
Codec ID/Hint : XviD
Duration : 1 h 25 min
Bit rate : 1 078 kb/s
Width : 688 pixels
Height : 288 pixels
Display aspect ratio : 2.40:1
Frame rate : 24.000 FPS
Color space : YUV
Chroma subsampling : 4:2:0
Bit depth : 8 bits
Scan type : Progressive
Compression mode : Lossy
Bits/(Pixel*Frame) : 0.227
Stream size : 660 MiB (89%)
Writing library : XviD 73
Audio
ID : 1
Format : MPEG Audio
Format version : Version 1
Format profile : Layer 3
Codec ID : 55
Codec ID/Hint : MP3
Duration : 1 h 25 min
Bit rate mode : Constant
Bit rate : 128 kb/s
Channel(s) : 2 channels
Sampling rate : 48.0 kHz
Frame rate : 41.667 FPS (1152 SPF)
Compression mode : Lossy
Stream size : 78.4 MiB (11%)
Alignment : Aligned on interleaves
Interleave, duration : 42 ms (1.00 video frame)
Interleave, preload duratio : 504 ms
Writing library : LAME3.99r
Encoding settings : -m s -V 4 -q 2 -lowpass 17 -b 128

Скриншоты

[cybertorrent.ru].t495.torrent 
Торрент: Зарегистрирован [ 2018-02-15 15:48 ] · 92FE2D241267183DCEF4FA0AC6D16F39EF595A49

Скачать .torrent

Скачать

15 KB

Статус: проверено
Скачан: 0 раз
Размер: 745 MB
Профиль [ЛС]
Показать сообщения:    

Текущее время: 22-Май 00:21

Часовой пояс: UTC ± 0



Вы не можете начинать темы
Вы не можете отвечать на сообщения
Вы не можете редактировать свои сообщения
Вы не можете удалять свои сообщения
Вы не можете голосовать в опросах
Вы не можете прикреплять файлы к сообщениям
Вы можете скачивать файлы