Статистика раздачи
Размер:  10,93 GB   |    Зарегистрирован:  7 месяцев 3 дня   |    Скачан:  0 раз

Полного источника не было: Никогда

   
 

Гость ®

Пол:
Не указан

Дорогая
Производство: Кинокомпания «Триикс Медиа»
Жанр: детектив, боевик, мелодрама
Год выпуска: 2013
Продолжительность: ~ 43:30
Субтитры: Русские (внешние)
Режиссёр: Виктор Татарский
В ролях: Игорь Петренко, Артур Ваха, Евгения Игумнова, Геша Меньшиков, Александр Карпухов, Денис Кириллов, Артем Бордовский, София Кварацхелия, Андрей Терентьев, Михаил Морозов, Алексей Байдаков, Дмитрий Кочкин, Олег Петров (III), Ирина Грицай, Роман Грибков, Галина Бокашевская, Арина Полякова, Даниил Кокин, Вадим Лымарь, Максим Крупский, Татьяна Маколова, Олег Ким (II), Андрей Мокеев, Василина Стрельникова, Артемий Веселов, Инна Ярмошук, Дмитрий Аверин
Описание: Для расследования ограбления ювелирного магазина в районное отделение полиции, в котором служит капитан Игорь Соколов, приходят майор Куприянов и капитан Рустам Палашкин. Оба немедленно становятся врагами капитана Соколова, у которого и без того проблем через край: парня выгнала из дома любимая женщина, от службы его практически отстранили за пьянство, а тем временем бандиты, действующие под руководством преступника по кличке Чаус, совершают одно ограбление за другим. Вскоре Игорь выходит на след одного из грабителей. Тот приводит его к дому очаровательной девушки Полины. Романтичный парень с первого взгляда влюбляется в незнакомку, не догадываясь, что она – бывшая супруга Чауса.
Доп. информация:
Автор релиза -
Источник видео и аудио - HDTV 1080i TS - моя запись с канала "Наш Кинороман HD"
Русские субтитры рипнуты мной с сайта MEGOGO
Рекламы нет!
Все раздачи сериала



Качество видео: HDTV 1080i
Формат видео: TS
Видео кодек: MPEG-4
Аудио кодек 1: МР2
Аудио кодек 2: AC3
Видео: 1920x1080 (16:9), 25.000 fps, ~7800 kbps, ~ 0.150 bit/pixel
Аудио 1: 48000 Гц, 2 ch, 192 kbps
Аудио 2: 48000 Гц, 6 ch, 448 kbps
Формат субтитров: softsub (SRT)

MediaInfo

Общее
Идентификатор : 1 (0x1)
Полное имя : D:\Дорогая.2013.HDTV.1080i-ylnian\Дорогая.2013.HDTV.1080i-ylnian_1.ts
Формат : MPEG-TS
Размер файла : 2,62 Гбайт
Продолжительность : 43 м. 34 с.
Режим общего битрейта : Переменный
Общий поток : 8597 Кбит/сек
Видео
Идентификатор : 3551 (0xDDF)
Идентификатор меню : 17015 (0x4277)
Формат : AVC
Формат/Информация : Advanced Video Codec
Профиль формата : Main@L4
Настройки формата : CABAC / 3 Ref Frames
Параметр CABAC формата : Да
Параметр RefFrames формата : 3 кадра
Идентификатор кодека : 27
Продолжительность : 43 м. 34 с.
Битрейт : 7526 Кбит/сек
Ширина : 1920 пикселей
Высота : 1080 пикселей
Соотношение сторон : 16:9
Частота кадров : 25,000 кадров/сек
Цветовое пространство : YUV
Субдискретизация насыщенности : 4:2:0
Битовая глубина : 8 бит
Тип развёртки : Чересстрочная
Метод сохранения типа развёртки : Раздельные поля
Порядок развёртки : Верхнее поле первое
Бит/(Пиксели*Кадры) : 0.145
Размер потока : 2,29 Гбайт (88%)
Цветовой диапазон : Limited
Основные цвета : BT.709
Характеристики трансфера : BT.709
Коэффициенты матрицы : BT.709
Аудио #1
Идентификатор : 3552 (0xDE0)
Идентификатор меню : 17015 (0x4277)
Формат : MPEG Audio
Версия формата : Version 1
Профиль формата : Layer 2
Идентификатор кодека : 3
Продолжительность : 43 м. 34 с.
Вид битрейта : Постоянный
Битрейт : 192 Кбит/сек
Каналы : 2 канала
Частота : 48,0 КГц
Частота кадров : 41,667 кадра/сек (1152 SPF)
Метод сжатия : С потерями
Задержка видео : -40 мс.
Размер потока : 59,8 Мбайт (2%)
Язык : Russian
Аудио #2
Идентификатор : 3553 (0xDE1)
Идентификатор меню : 17015 (0x4277)
Формат : AC-3
Формат/Информация : Audio Coding 3
Коммерческое название : Dolby Digital
Идентификатор кодека : 6
Продолжительность : 43 м. 34 с.
Вид битрейта : Постоянный
Битрейт : 448 Кбит/сек
Каналы : 6 каналов
Channel layout : L R C LFE Ls Rs
Частота : 48,0 КГц
Частота кадров : 31,250 кадров/сек (1536 SPF)
Битовая глубина : 16 бит
Метод сжатия : С потерями
Задержка видео : -40 мс.
Размер потока : 140 Мбайт (5%)
Язык : Russian
ServiceKind/String : Complete Main
Общее
Полное имя : D:\Дорогая.2013.HDTV.1080i-ylnian\Дорогая.2013.HDTV.1080i-ylnian_1_rus.srt
Формат : SubRip
Размер файла : 45,8 Кбайт
Текст
Формат : SubRip
Метод сжатия : Без потерь
Общее
Идентификатор : 1 (0x1)
Полное имя : D:\Дорогая.2013.HDTV.1080i-ylnian\Дорогая.2013.HDTV.1080i-ylnian_2.ts
Формат : MPEG-TS
Размер файла : 2,70 Гбайт
Продолжительность : 43 м. 31 с.
Режим общего битрейта : Переменный
Общий поток : 8882 Кбит/сек
Видео
Идентификатор : 3551 (0xDDF)
Идентификатор меню : 17015 (0x4277)
Формат : AVC
Формат/Информация : Advanced Video Codec
Профиль формата : Main@L4
Настройки формата : CABAC / 3 Ref Frames
Параметр CABAC формата : Да
Параметр RefFrames формата : 3 кадра
Идентификатор кодека : 27
Продолжительность : 43 м. 31 с.
Битрейт : 7797 Кбит/сек
Ширина : 1920 пикселей
Высота : 1080 пикселей
Соотношение сторон : 16:9
Частота кадров : 25,000 кадров/сек
Цветовое пространство : YUV
Субдискретизация насыщенности : 4:2:0
Битовая глубина : 8 бит
Тип развёртки : Чересстрочная
Метод сохранения типа развёртки : Раздельные поля
Порядок развёртки : Верхнее поле первое
Бит/(Пиксели*Кадры) : 0.150
Размер потока : 2,37 Гбайт (88%)
Цветовой диапазон : Limited
Основные цвета : BT.709
Характеристики трансфера : BT.709
Коэффициенты матрицы : BT.709
Аудио #1
Идентификатор : 3552 (0xDE0)
Идентификатор меню : 17015 (0x4277)
Формат : MPEG Audio
Версия формата : Version 1
Профиль формата : Layer 2
Идентификатор кодека : 3
Продолжительность : 43 м. 31 с.
Вид битрейта : Постоянный
Битрейт : 192 Кбит/сек
Каналы : 2 канала
Частота : 48,0 КГц
Частота кадров : 41,667 кадра/сек (1152 SPF)
Метод сжатия : С потерями
Размер потока : 59,8 Мбайт (2%)
Язык : Russian
Аудио #2
Идентификатор : 3553 (0xDE1)
Идентификатор меню : 17015 (0x4277)
Формат : AC-3
Формат/Информация : Audio Coding 3
Коммерческое название : Dolby Digital
Идентификатор кодека : 6
Продолжительность : 43 м. 31 с.
Вид битрейта : Постоянный
Битрейт : 448 Кбит/сек
Каналы : 6 каналов
Channel layout : L R C LFE Ls Rs
Частота : 48,0 КГц
Частота кадров : 31,250 кадров/сек (1536 SPF)
Битовая глубина : 16 бит
Метод сжатия : С потерями
Размер потока : 139 Мбайт (5%)
Язык : Russian
ServiceKind/String : Complete Main
Общее
Полное имя : D:\Дорогая.2013.HDTV.1080i-ylnian\Дорогая.2013.HDTV.1080i-ylnian_2_rus.srt
Формат : SubRip
Размер файла : 48,3 Кбайт
Текст
Формат : SubRip
Метод сжатия : Без потерь
Общее
Идентификатор : 1 (0x1)
Полное имя : D:\Дорогая.2013.HDTV.1080i-ylnian\Дорогая.2013.HDTV.1080i-ylnian_3.ts
Формат : MPEG-TS
Размер файла : 2,66 Гбайт
Продолжительность : 43 м. 23 с.
Режим общего битрейта : Переменный
Общий поток : 8772 Кбит/сек
Видео
Идентификатор : 3551 (0xDDF)
Идентификатор меню : 17015 (0x4277)
Формат : AVC
Формат/Информация : Advanced Video Codec
Профиль формата : Main@L4
Настройки формата : CABAC / 3 Ref Frames
Параметр CABAC формата : Да
Параметр RefFrames формата : 3 кадра
Идентификатор кодека : 27
Продолжительность : 43 м. 23 с.
Битрейт : 7692 Кбит/сек
Ширина : 1920 пикселей
Высота : 1080 пикселей
Соотношение сторон : 16:9
Частота кадров : 25,000 кадров/сек
Цветовое пространство : YUV
Субдискретизация насыщенности : 4:2:0
Битовая глубина : 8 бит
Тип развёртки : Чересстрочная
Метод сохранения типа развёртки : Раздельные поля
Порядок развёртки : Верхнее поле первое
Бит/(Пиксели*Кадры) : 0.148
Размер потока : 2,33 Гбайт (88%)
Цветовой диапазон : Limited
Основные цвета : BT.709
Характеристики трансфера : BT.709
Коэффициенты матрицы : BT.709
Аудио #1
Идентификатор : 3552 (0xDE0)
Идентификатор меню : 17015 (0x4277)
Формат : MPEG Audio
Версия формата : Version 1
Профиль формата : Layer 2
Идентификатор кодека : 3
Продолжительность : 43 м. 23 с.
Вид битрейта : Постоянный
Битрейт : 192 Кбит/сек
Каналы : 2 канала
Частота : 48,0 КГц
Частота кадров : 41,667 кадра/сек (1152 SPF)
Метод сжатия : С потерями
Задержка видео : -40 мс.
Размер потока : 59,6 Мбайт (2%)
Язык : Russian
Аудио #2
Идентификатор : 3553 (0xDE1)
Идентификатор меню : 17015 (0x4277)
Формат : AC-3
Формат/Информация : Audio Coding 3
Коммерческое название : Dolby Digital
Идентификатор кодека : 6
Продолжительность : 43 м. 23 с.
Вид битрейта : Постоянный
Битрейт : 448 Кбит/сек
Каналы : 6 каналов
Channel layout : L R C LFE Ls Rs
Частота : 48,0 КГц
Частота кадров : 31,250 кадров/сек (1536 SPF)
Битовая глубина : 16 бит
Метод сжатия : С потерями
Задержка видео : -40 мс.
Размер потока : 139 Мбайт (5%)
Язык : Russian
ServiceKind/String : Complete Main
Общее
Полное имя : D:\Дорогая.2013.HDTV.1080i-ylnian\Дорогая.2013.HDTV.1080i-ylnian_3_rus.srt
Формат : SubRip
Размер файла : 43,3 Кбайт
Текст
Формат : SubRip
Метод сжатия : Без потерь
Общее
Идентификатор : 1 (0x1)
Полное имя : D:\Дорогая.2013.HDTV.1080i-ylnian\Дорогая.2013.HDTV.1080i-ylnian_4.ts
Формат : MPEG-TS
Размер файла : 2,96 Гбайт
Продолжительность : 44 м. 12 с.
Режим общего битрейта : Переменный
Общий поток : 9574 Кбит/сек
Видео
Идентификатор : 3551 (0xDDF)
Идентификатор меню : 17015 (0x4277)
Формат : AVC
Формат/Информация : Advanced Video Codec
Профиль формата : Main@L4
Настройки формата : CABAC / 3 Ref Frames
Параметр CABAC формата : Да
Параметр RefFrames формата : 3 кадра
Идентификатор кодека : 27
Продолжительность : 44 м. 11 с.
Битрейт : 8454 Кбит/сек
Ширина : 1920 пикселей
Высота : 1080 пикселей
Соотношение сторон : 16:9
Частота кадров : 25,000 кадров/сек
Цветовое пространство : YUV
Субдискретизация насыщенности : 4:2:0
Битовая глубина : 8 бит
Тип развёртки : Чересстрочная
Метод сохранения типа развёртки : Раздельные поля
Порядок развёртки : Верхнее поле первое
Бит/(Пиксели*Кадры) : 0.163
Размер потока : 2,61 Гбайт (88%)
Цветовой диапазон : Limited
Основные цвета : BT.709
Характеристики трансфера : BT.709
Коэффициенты матрицы : BT.709
Аудио #1
Идентификатор : 3552 (0xDE0)
Идентификатор меню : 17015 (0x4277)
Формат : MPEG Audio
Версия формата : Version 1
Профиль формата : Layer 2
Идентификатор кодека : 3
Продолжительность : 44 м. 12 с.
Вид битрейта : Постоянный
Битрейт : 192 Кбит/сек
Каналы : 2 канала
Частота : 48,0 КГц
Частота кадров : 41,667 кадра/сек (1152 SPF)
Метод сжатия : С потерями
Задержка видео : -120 мс.
Размер потока : 60,7 Мбайт (2%)
Язык : Russian
Аудио #2
Идентификатор : 3553 (0xDE1)
Идентификатор меню : 17015 (0x4277)
Формат : AC-3
Формат/Информация : Audio Coding 3
Коммерческое название : Dolby Digital
Идентификатор кодека : 6
Продолжительность : 44 м. 11 с.
Вид битрейта : Постоянный
Битрейт : 448 Кбит/сек
Каналы : 6 каналов
Channel layout : L R C LFE Ls Rs
Частота : 48,0 КГц
Частота кадров : 31,250 кадров/сек (1536 SPF)
Битовая глубина : 16 бит
Метод сжатия : С потерями
Задержка видео : -120 мс.
Размер потока : 142 Мбайт (5%)
Язык : Russian
ServiceKind/String : Complete Main
Общее
Полное имя : D:\Дорогая.2013.HDTV.1080i-ylnian\Дорогая.2013.HDTV.1080i-ylnian_4_rus.srt
Формат : SubRip
Размер файла : 44,2 Кбайт
Текст
Формат : SubRip
Метод сжатия : Без потерь
[cybertorrent.ru].t496.torrent 
Торрент: Зарегистрирован [ 2019-03-18 13:08 ] · CEADF1AB8311E762F0D0E030570B5BDA4DA85D5D

Скачать .torrent

Скачать

56 KB

Статус: проверено
Скачан: 0 раз
Размер: 10,93 GB
terms.php
Показать сообщения:    

Текущее время: 22-Окт 08:35

Часовой пояс: UTC ± 0



Вы не можете начинать темы
Вы не можете отвечать на сообщения
Вы не можете редактировать свои сообщения
Вы не можете удалять свои сообщения
Вы не можете голосовать в опросах
Вы не можете прикреплять файлы к сообщениям
Вы можете скачивать файлы