Статистика раздачи
Размер:  1,47 GB   |    Зарегистрирован:  3 месяца 9 дней   |    Скачан:  0 раз

Полного источника не было: Никогда

 
   
 
 

lopster ®

Пол:
Не указан
Стаж:
3 месяца 9 дней
Сообщений:
612

Птичка
Жанр: драма
Год выпуска: 2015
Продолжительность: 01:26:14
Режиссёр: Владимир Бек
В ролях: Маргарита Толстоганова, Петр Скворцов, Саша Рыбакова, Матвей Иванов, Тимофей Шубин

Описание: Лето. Детский лагерь отдыха. Луга. Поля. Птицы. Стрекотание кузнечиков. Речка. Вечерние дискотеки. Песни у костра. И, конечно, любовь. Роман воспитателей Риты и Паши развивается на глазах их воспитанников. Особенно пристально наблюдают за ним Дима и Лента. Ведь Дима тайно влюблен в Риту, а Лента - в Пашу. И хоть подростки не дружат между собой, ревность становится тем чувством, что их объединяет. Испытав все средства для привлечения внимания и поняв, что это бесполезно, Дима и Лента обращаются к помощи магии.

Кинопоиск
Sample
Качество видео: WEB-DLRip
Формат видео: AVI
Видео: 720x384 (1.85:1), 25 fps, XviD build 73 ~2235 kbps avg, 0.32 bit/pixel
Аудио: 48 kHz, AC3 Dolby Digital, 2/0 (L,R) ch, ~192 kbps

MediaInfo

General
Complete name : D:\Птичка 2015.avi
Format : AVI
Format/Info : Audio Video Interleave
File size : 1.47 GiB
Duration : 1h 26mn
Overall bit rate : 2 437 Kbps
Writing application : VirtualDubMod 1.5.10.3 | www.virtualdub-fr.org || (build 2550/release)
Writing library : VirtualDubMod build 2550/release
Video
ID : 0
Format : MPEG-4 Visual
Format profile : Advanced Simple@L5
Format settings, BVOP : 1
Format settings, QPel : No
Format settings, GMC : No warppoints
Format settings, Matrix : Default (MPEG)
Codec ID : XVID
Codec ID/Hint : XviD
Duration : 1h 26mn
Bit rate : 2 235 Kbps
Width : 720 pixels
Height : 384 pixels
Display aspect ratio : 1.85:1
Frame rate : 25.000 fps
Color space : YUV
Chroma subsampling : 4:2:0
Bit depth : 8 bits
Scan type : Progressive
Compression mode : Lossy
Bits/(Pixel*Frame) : 0.323
Stream size : 1.35 GiB (92%)
Writing library : XviD 1.2.1 (UTC 2008-12-04)
Audio
ID : 1
Format : AC-3
Format/Info : Audio Coding 3
Mode extension : CM (complete main)
Format settings, Endianness : Big
Codec ID : 2000
Duration : 1h 26mn
Bit rate mode : Constant
Bit rate : 192 Kbps
Channel count : 2 channels
Channel positions : Front: L R
Sampling rate : 48.0 KHz
Bit depth : 16 bits
Compression mode : Lossy
Stream size : 118 MiB (8%)
Alignment : Split accross interleaves
Interleave, duration : 40 ms (1.00 video frame)
Interleave, preload duration : 500 ms

Скриншот c названием фильма

Скриншоты


[cybertorrent.ru].t499.torrent 
Торрент: Зарегистрирован [ 2018-02-15 15:48 ] · 50D86406F0C7DCF4698F83CAD46E238E0CB0764E

Скачать .torrent

Скачать

15 KB

Статус: проверено
Скачан: 0 раз
Размер: 1,47 GB
Профиль [ЛС]
Показать сообщения:    

Текущее время: 25-Май 09:02

Часовой пояс: UTC ± 0



Вы не можете начинать темы
Вы не можете отвечать на сообщения
Вы не можете редактировать свои сообщения
Вы не можете удалять свои сообщения
Вы не можете голосовать в опросах
Вы не можете прикреплять файлы к сообщениям
Вы можете скачивать файлы