Статистика раздачи
Размер:  341 MB   |    Зарегистрирован:  1 месяц 3 дня   |    Скачан:  0 раз

Полного источника не было: Никогда

 
   
 
 

ewa ®

Пол:
Не указан
Стаж:
3 месяца 5 дней
Сообщений:
217

J. C. Lodge / Tropic of Love
Жанр: Reggae
Носитель: CD
Страна-производитель диска (релиза): Canada
Год издания: 1992
Издатель (лейбл): Isba Records Inc.
Номер по каталогу: ISCD 2034
Аудиокодек: FLAC (*.flac)
Тип рипа: tracks+.cue
Битрейт аудио: lossless
Продолжительность: 0:52:26.
Источник (релизер): clustert
Наличие сканов в содержимом раздачи: да
Треклист:
01. Home is where the hurt is [0:04:17.60]
02. Why [0:05:16.07]
03. Telephone love [0:03:33.38]
04. The prey [0:04:47.65]
05. Come again [0:04:10.65]
06. I want to share my life [0:04:36.42]
07. Pillow talk [0:04:08.38]
08. We've got to have love [0:04:32.37]
09. Chain of love [0:04:12.23]
10. Higher (Imago theme) [0:03:58.25]
11. Love me baby [0:04:02.12]
12. Cult 4 2 [0:04:50.13]

Лог создания рипа

Exact Audio Copy V1.0 beta 3 from 29. August 2011
Отчёт EAC об извлечении, выполненном 21. июня 2017, 0:06
J. C. Lodge / Tropic of Love
Дисковод: ASUS DRW-1814BLT Adapter: 4 ID: 0
Режим чтения : Достоверность
Использование точного потока : Да
Отключение кэша аудио : Да
Использование указателей C2 : Нет
Коррекция смещения при чтении : 6
Способность читать области Lead-in и Lead-out : Нет
Заполнение пропущенных сэмплов тишиной : Да
Удаление блоков с тишиной в начале и конце : Нет
При вычислениях CRC использовались нулевые сэмплы : Да
Интерфейс : Встроенный Win32-интерфейс для Win NT/2000
Обработка зазоров : Добавлено к предыдущему треку
Выходной формат : Пользовательский кодировщик
Выбранный битрейт : 128 kBit/s
Качество : Высокий
Добавление ID3-тега : Нет
Утилита сжатия : C:\Program Files\Exact Audio Copy\Flac\flac.exe
Дополнительные параметры : -V -8 -T "Genre=%genre%" -T "Artist=%artist%" -T "Title=%title%" -T "Album=%albumtitle%" -T "Date=%year%" -T "Tracknumber=%tracknr%" -T "Comment=EAC1.0b2 FLAC -8" %source%
TOC извлечённого CD
Трек | Старт | Длительность | Начальный сектор | Конечный сектор
---------------------------------------------------------------------
1 | 0:00.00 | 4:17.60 | 0 | 19334
2 | 4:17.60 | 5:16.07 | 19335 | 43041
3 | 9:33.67 | 3:33.38 | 43042 | 59054
4 | 13:07.30 | 4:47.65 | 59055 | 80644
5 | 17:55.20 | 4:10.65 | 80645 | 99459
6 | 22:06.10 | 4:36.42 | 99460 | 120201
7 | 26:42.52 | 4:08.38 | 120202 | 138839
8 | 30:51.15 | 4:32.37 | 138840 | 159276
9 | 35:23.52 | 4:12.23 | 159277 | 178199
10 | 39:36.00 | 3:58.25 | 178200 | 196074
11 | 43:34.25 | 4:02.12 | 196075 | 214236
12 | 47:36.37 | 4:50.13 | 214237 | 235999
Трек 1
Имя файла R:\Раздача 74\J. C. Lodge - 1992 - Tropic Of Love\01 Home is where the hurt is .wav
Длина предзазора 0:00:02.00
Пиковый уровень 100.0 %
Скорость извлечения 2.7 X
Качество трека 100.0 %
CRC теста 72F379B1
CRC копии 72F379B1
Трек не обнаружен в базе AccurateRip
Копирование... OK
Трек 2
Имя файла R:\Раздача 74\J. C. Lodge - 1992 - Tropic Of Love\02 Why .wav
Длина предзазора 0:00:02.08
Пиковый уровень 99.8 %
Скорость извлечения 3.1 X
Качество трека 100.0 %
CRC теста 6391035D
CRC копии 6391035D
Трек не обнаружен в базе AccurateRip
Копирование... OK
Трек 3
Имя файла R:\Раздача 74\J. C. Lodge - 1992 - Tropic Of Love\03 Telephone love .wav
Длина предзазора 0:00:00.72
Пиковый уровень 97.9 %
Скорость извлечения 3.3 X
Качество трека 100.0 %
CRC теста AD29D1F2
CRC копии AD29D1F2
Трек не обнаружен в базе AccurateRip
Копирование... OK
Трек 4
Имя файла R:\Раздача 74\J. C. Lodge - 1992 - Tropic Of Love\04 The prey .wav
Длина предзазора 0:00:01.50
Пиковый уровень 95.5 %
Скорость извлечения 3.6 X
Качество трека 100.0 %
CRC теста C767644B
CRC копии C767644B
Трек не обнаружен в базе AccurateRip
Копирование... OK
Трек 5
Имя файла R:\Раздача 74\J. C. Lodge - 1992 - Tropic Of Love\05 Come again .wav
Длина предзазора 0:00:02.05
Пиковый уровень 100.0 %
Скорость извлечения 3.8 X
Качество трека 100.0 %
CRC теста 7625D188
CRC копии 7625D188
Трек не обнаружен в базе AccurateRip
Копирование... OK
Трек 6
Имя файла R:\Раздача 74\J. C. Lodge - 1992 - Tropic Of Love\06 I want to share my life .wav
Длина предзазора 0:00:01.38
Пиковый уровень 89.3 %
Скорость извлечения 2.8 X
Качество трека 99.9 %
CRC теста E6F62680
CRC копии E6F62680
Трек не обнаружен в базе AccurateRip
Копирование... OK
Трек 7
Имя файла R:\Раздача 74\J. C. Lodge - 1992 - Tropic Of Love\07 Pillow talk .wav
Длина предзазора 0:00:01.10
Пиковый уровень 100.0 %
Скорость извлечения 4.2 X
Качество трека 100.0 %
CRC теста F2568C6C
CRC копии F2568C6C
Трек не обнаружен в базе AccurateRip
Копирование... OK
Трек 8
Имя файла R:\Раздача 74\J. C. Lodge - 1992 - Tropic Of Love\08 We've got to have love .wav
Длина предзазора 0:00:02.05
Пиковый уровень 100.0 %
Скорость извлечения 4.5 X
Качество трека 100.0 %
CRC теста E418792C
CRC копии E418792C
Трек не обнаружен в базе AccurateRip
Копирование... OK
Трек 9
Имя файла R:\Раздача 74\J. C. Lodge - 1992 - Tropic Of Love\09 Chain of love .wav
Длина предзазора 0:00:01.57
Пиковый уровень 100.0 %
Скорость извлечения 2.8 X
Качество трека 99.9 %
CRC теста 4299D821
CRC копии 4299D821
Трек не обнаружен в базе AccurateRip
Копирование... OK
Трек 10
Имя файла R:\Раздача 74\J. C. Lodge - 1992 - Tropic Of Love\10 Higher (Imago theme) .wav
Длина предзазора 0:00:01.55
Пиковый уровень 91.2 %
Скорость извлечения 4.7 X
Качество трека 100.0 %
CRC теста 2CC6C8C1
CRC копии 2CC6C8C1
Трек не обнаружен в базе AccurateRip
Копирование... OK
Трек 11
Имя файла R:\Раздача 74\J. C. Lodge - 1992 - Tropic Of Love\11 Love me baby .wav
Длина предзазора 0:00:01.20
Пиковый уровень 95.6 %
Скорость извлечения 4.9 X
Качество трека 100.0 %
CRC теста 90A19684
CRC копии 90A19684
Трек не обнаружен в базе AccurateRip
Копирование... OK
Трек 12
Имя файла R:\Раздача 74\J. C. Lodge - 1992 - Tropic Of Love\12 Cult 4 2 .wav
Длина предзазора 0:00:00.37
Пиковый уровень 99.7 %
Скорость извлечения 3.1 X
Качество трека 99.9 %
CRC теста BCC6A53A
CRC копии BCC6A53A
Трек не обнаружен в базе AccurateRip
Копирование... OK
Ни одного трека нет в базе AccurateRip
Ошибок не произошло
Конец отчёта
==== Контрольная сумма отчёта 25965DDF1B685380D905B77101A21A78679A8A528B5B3C2D033D984F16E68D14 ====

Содержание индексной карты (.CUE)

REM GENRE Reggae
REM DATE 1992
REM DISCID B80C4A0C
REM COMMENT "ExactAudioCopy v1.0b3"
PERFORMER "J. C. Lodge"
TITLE "Tropic of Love"
FILE "01 Home is where the hurt is .wav" WAVE
TRACK 01 AUDIO
TITLE "Home is where the hurt is"
PERFORMER "J. C. Lodge"
FLAGS DCP
INDEX 01 00:00:00
TRACK 02 AUDIO
TITLE "Why"
PERFORMER "J. C. Lodge"
FLAGS DCP
INDEX 00 04:15:52
FILE "02 Why .wav" WAVE
INDEX 01 00:00:00
TRACK 03 AUDIO
TITLE "Telephone love"
PERFORMER "J. C. Lodge"
FLAGS DCP
INDEX 00 05:15:10
FILE "03 Telephone love .wav" WAVE
INDEX 01 00:00:00
TRACK 04 AUDIO
TITLE "The prey"
PERFORMER "J. C. Lodge"
FLAGS DCP
INDEX 00 03:31:63
FILE "04 The prey .wav" WAVE
INDEX 01 00:00:00
TRACK 05 AUDIO
TITLE "Come again"
PERFORMER "J. C. Lodge"
FLAGS DCP
INDEX 00 04:45:60
FILE "05 Come again .wav" WAVE
INDEX 01 00:00:00
TRACK 06 AUDIO
TITLE "I want to share my life"
PERFORMER "J. C. Lodge"
FLAGS DCP
INDEX 00 04:09:27
FILE "06 I want to share my life .wav" WAVE
INDEX 01 00:00:00
TRACK 07 AUDIO
TITLE "Pillow talk"
PERFORMER "J. C. Lodge"
FLAGS DCP
INDEX 00 04:35:32
FILE "07 Pillow talk .wav" WAVE
INDEX 01 00:00:00
TRACK 08 AUDIO
TITLE "We've got to have love"
PERFORMER "J. C. Lodge"
FLAGS DCP
INDEX 00 04:06:33
FILE "08 We've got to have love .wav" WAVE
INDEX 01 00:00:00
TRACK 09 AUDIO
TITLE "Chain of love"
PERFORMER "J. C. Lodge"
FLAGS DCP
INDEX 00 04:30:55
FILE "09 Chain of love .wav" WAVE
INDEX 01 00:00:00
TRACK 10 AUDIO
TITLE "Higher (Imago theme)"
PERFORMER "J. C. Lodge"
FLAGS DCP
INDEX 00 04:10:43
FILE "10 Higher (Imago theme) .wav" WAVE
INDEX 01 00:00:00
TRACK 11 AUDIO
TITLE "Love me baby"
PERFORMER "J. C. Lodge"
FLAGS DCP
INDEX 00 03:57:05
FILE "11 Love me baby .wav" WAVE
INDEX 01 00:00:00
TRACK 12 AUDIO
TITLE "Cult 4 2"
PERFORMER "J. C. Lodge"
FLAGS DCP
INDEX 00 04:01:50
FILE "12 Cult 4 2 .wav" WAVE
INDEX 01 00:00:00
[cybertorrent.ru].t50076.torrent 
Торрент: Зарегистрирован [ 2018-04-18 19:25 ] · 5296089FF799BDFB1D6A23006D0BD06E31AD4272

Скачать .torrent

Скачать

15 KB

Статус: проверено
Скачан: 0 раз
Размер: 341 MB
Профиль [ЛС]
Показать сообщения:    

Текущее время: 21-Май 22:51

Часовой пояс: UTC ± 0



Вы не можете начинать темы
Вы не можете отвечать на сообщения
Вы не можете редактировать свои сообщения
Вы не можете удалять свои сообщения
Вы не можете голосовать в опросах
Вы не можете прикреплять файлы к сообщениям
Вы можете скачивать файлы