Статистика раздачи
Размер:  7,19 GB   |    Зарегистрирован:  1 месяц 3 дня   |    Скачан:  0 раз

Полного источника не было: Никогда

 
   
 
 

Crazy ®

Пол:
Не указан
Стаж:
3 месяца 6 дней
Сообщений:
363

Железнодорожные тигры / Tie dao fei hu / Railroad Tigers
Страна: Китай
Студия: Sparkle Roll Media, Shanghai Film Group, Beijing Going Zoom Media See
Жанр: боевик, комедия, военный
Год выпуска: 2016
Продолжительность: 02:04:15--Перевод 1: профессиональный (многоголосый закадровый) Jaskier
Перевод 2: авторский (одноголосый закадровый) Живов
Перевод 3: одноголосый закадровый Chesterfield
Субтитры: русские, английские
Оригинальная аудиодорожка: китайский--Режиссер: Дин Шэн / Ding Sheng--В ролях: Джеки Чан, Цзытао Хуан, Джэйси Чан, Кай Ван, Хироюки Икеучи, Пин Сан, Алан ЭнДжи, Фань Сюй, Даррен Ван, Кодзи Яно, Ланьсинь Чжан, Ишан Чжан, Вэй На, Юньвэй Хэ, Асано Нагахидэ, Натас Асока, Хайлун Лю--Описание: В декабре 1941 года Япония расширяет оккупацию соседних стран в Юго-Восточной Азии. Железная дорога от Тяньцзинь Нанкин в Восточном Китае стала ключевым маршрутом для военных перевозок под усиленной охраной японских солдат. Работник железной дороги Ма Юань организовывает команду борцов за свободу. Используя свои глубокие знания железнодорожных сетей, он со своими людьми устраивает засады на японских солдат и ворует их припасы, чтобы накормить голодающих соотечественников.
Местные называют своих героев «железнодорожными тиграми». И когда борцы за свободу оказываются на неправильной стороне путей при отправке подкрепления японцам в провинцию Шаньдун, Ма Юань решается на опасный поступок — взорвать тщательно охраняемый железнодорожный мост.--Доп. информация: Чаптеры взяты с исходного BDRemux.
Релиз без рекламы.--Сэмпл: http://sendfile.su/1401186--Тип релиза: BDRip 720p
Контейнер: MKV
Видео: MPEG4/AVC, 2.40:1, 24.000 FPS, 1280x536p, 5390 kb/s
Аудио 1: RUS / AC-3, 48.0 kHz, 5.1, 640 kb/s | профессиональный многоголосый [Jaskier]
Аудио 2: RUS / AC-3, 48.0 kHz, 5.1, 384 kb/s | авторский [Живов]
Аудио 3: RUS / AC-3, 48.0 kHz, 2.0, 192 kb/s | одноголосный [Chesterfield]
Аудио 4: CHI / DTS, 48.0 kHz, 5.1, 1509 kb/s | оригинал
Формат субтитров: softsub (SRT)
Релиз:

MediaInfo

x264 [info]: profile High, level 4.1
x264 [info]: frame I:3058 Avg QP:14.82 size:102695
x264 [info]: frame P:44371 Avg QP:16.53 size: 50471
x264 [info]: frame B:131509 Avg QP:18.98 size: 19925
x264 [info]: consecutive B-frames: 4.2% 4.3% 14.4% 26.6% 16.5% 27.5% 4.1% 1.0% 1.6%
Формат : Matroska
Версия формата : Version 2
Размер файла : 7,19 Гбайт
Продолжительность : 2 ч. 4 м.
Общий поток : 8280 Кбит/сек
Название фильма : Railroad.Tigers.2016.HDRip.DD - Rip from RUTRACKER
Дата кодирования : UTC 2018-02-23 10:26:14
Программа кодирования : mkvmerge v7.6.0 ('Garden of Dreams') 32bit built on Feb 11 2015 00:18:47
Библиотека кодирования : libebml v1.3.1 + libmatroska v1.4.2
Обложка : Yes
Attachments : cover.jpg
Видео
Идентификатор : 1
Формат : AVC
Формат/Информация : Advanced Video Codec
Профиль формата : High@L4.1
Настройки формата : CABAC / 12 Ref Frames
Параметр CABAC формата : Да
Параметр RefFrames формата : 12 кадров
Идентификатор кодека : V_MPEG4/ISO/AVC
Продолжительность : 2 ч. 4 м.
Битрейт : 5390 Кбит/сек
Ширина : 1280 пикселей
Высота : 536 пикселей
Соотношение сторон : 2,40:1
Режим частоты кадров : Постоянный
Частота кадров : 24,000 кадра/сек
Цветовое пространство : YUV
Субдискретизация насыщенности : 4:2:0
Битовая глубина : 8 бит
Тип развёртки : Прогрессивная
Бит/(Пиксели*Кадры) : 0.327
Размер потока : 4,68 Гбайт (65%)
Заголовок : Railroad.Tigers.2016 - ripped by<>
Библиотека кодирования : x264 core 150 r2833 df79067
Настройки программы : cabac=1 / ref=12 / deblock=1:-3:-3 / analyse=0x3:0x113 / me=umh / subme=10 / psy=1 / psy_rd=0.90:0.00 / mixed_ref=1 / me_range=24 / chroma_me=1 / trellis=2 / 8x8dct=1 / cqm=0 / deadzone=21,11 / fast_pskip=1 / chroma_qp_offset=-2 / threads=6 / lookahead_threads=1 / sliced_threads=0 / nr=0 / decimate=0 / interlaced=0 / bluray_compat=0 / constrained_intra=0 / bframes=8 / b_pyramid=2 / b_adapt=2 / b_bias=0 / direct=1 / weightb=1 / open_gop=0 / weightp=2 / keyint=250 / keyint_min=23 / scenecut=40 / intra_refresh=0 / rc_lookahead=60 / rc=crf / mbtree=0 / crf=15.8 / qcomp=0.68 / qpmin=0 / qpmax=69 / qpstep=4 / vbv_maxrate=62500 / vbv_bufsize=78125 / crf_max=0.0 / nal_hrd=none / filler=0 / ip_ratio=1.40 / pb_ratio=1.30 / aq=2:0.72
Default : Да
Forced : Нет
Statistics Tags Issue : mkvmerge v13.0.0 ('The Juggler') 64bit 2017-06-29 15:17:11 / mkvmerge v7.6.0 ('Garden of Dreams') 32bit built on Feb 11 2015 00:18:47 2018-02-23 10:26:14
FromStats_BitRate : 5551417
FromStats_Duration : 02:04:15.750000000
FromStats_FrameCount : 178938
FromStats_StreamSize : 5173747342
Аудио #1
Идентификатор : 2
Формат : AC-3
Формат/Информация : Audio Coding 3
Идентификатор кодека : A_AC3
Продолжительность : 2 ч. 4 м.
Вид битрейта : Постоянный
Битрейт : 640 Кбит/сек
Каналы : 6 каналов
Расположение каналов : Front: L C R, Side: L R, LFE
Частота : 48,0 КГц
Частота кадров : 31,250 кадров/сек (1536 SPF)
Битовая глубина : 16 бит
Метод сжатия : С потерями
Размер потока : 569 Мбайт (8%)
Заголовок : закдровый [Jaskier]
Язык : Russian
ServiceKind/String : Complete Main
Default : Да
Forced : Нет
Аудио #2
Идентификатор : 3
Формат : AC-3
Формат/Информация : Audio Coding 3
Идентификатор кодека : A_AC3
Продолжительность : 2 ч. 4 м.
Вид битрейта : Постоянный
Битрейт : 384 Кбит/сек
Каналы : 6 каналов
Расположение каналов : Front: L C R, Side: L R, LFE
Частота : 48,0 КГц
Частота кадров : 31,250 кадров/сек (1536 SPF)
Битовая глубина : 16 бит
Метод сжатия : С потерями
Размер потока : 341 Мбайт (5%)
Заголовок : авторский - Живов
Язык : Russian
ServiceKind/String : Complete Main
Default : Нет
Forced : Нет
Аудио #3
Идентификатор : 4
Формат : AC-3
Формат/Информация : Audio Coding 3
Идентификатор кодека : A_AC3
Продолжительность : 2 ч. 4 м.
Вид битрейта : Постоянный
Битрейт : 192 Кбит/сек
Каналы : 2 канала
Расположение каналов : Front: L R
Частота : 48,0 КГц
Частота кадров : 31,250 кадров/сек (1536 SPF)
Битовая глубина : 16 бит
Метод сжатия : С потерями
Размер потока : 171 Мбайт (2%)
Заголовок : любительский [Chesterfield]
Язык : Russian
ServiceKind/String : Complete Main
Default : Нет
Forced : Нет
Аудио #4
Идентификатор : 5
Формат : DTS
Формат/Информация : Digital Theater Systems
Идентификатор кодека : A_DTS
Продолжительность : 2 ч. 4 м.
Вид битрейта : Постоянный
Битрейт : 1509 Кбит/сек
Каналы : 6 каналов
Расположение каналов : Front: L C R, Side: L R, LFE
Частота : 48,0 КГц
Частота кадров : 93,750 кадра/сек (512 SPF)
Битовая глубина : 24 бит
Метод сжатия : С потерями
Размер потока : 1,31 Гбайт (18%)
Заголовок : оригинал
Язык : Chinese
Default : Нет
Forced : Нет
Текст #1
Идентификатор : 6
Формат : UTF-8
Идентификатор кодека : S_TEXT/UTF8
Идентификатор кодека/Информация : UTF-8 Plain Text
Заголовок : русские
Язык : Russian
Default : Нет
Forced : Нет
Текст #2
Идентификатор : 7
Формат : UTF-8
Идентификатор кодека : S_TEXT/UTF8
Идентификатор кодека/Информация : UTF-8 Plain Text
Заголовок : английские
Язык : English
Default : Нет
Forced : Нет
Меню
00:00:00.000 : en:00:00:00.000
00:11:37.083 : en:00:11:37.083
00:20:22.792 : en:00:20:22.792
00:31:07.167 : en:00:31:07.167
00:41:32.583 : en:00:41:32.583
00:54:51.583 : en:00:54:51.583
01:02:03.917 : en:01:02:03.917
01:14:17.458 : en:01:14:17.458
01:23:37.167 : en:01:23:37.167
01:31:45.125 : en:01:31:45.125
01:42:10.083 : en:01:42:10.083
01:51:37.042 : en:01:51:37.042

Скриншоты

Торрент обновлен - замена звука, сэмпла, медиаинфо.
[cybertorrent.ru].t50155.torrent 
Торрент: Зарегистрирован [ 2018-04-18 19:25 ] · 0F130A0B3BC21805FBF164AB58A18CDEB335B31D

Скачать .torrent

Скачать

18 KB

Статус: проверено
Скачан: 0 раз
Размер: 7,19 GB
Профиль [ЛС]
Показать сообщения:    

Текущее время: 21-Май 22:47

Часовой пояс: UTC ± 0



Вы не можете начинать темы
Вы не можете отвечать на сообщения
Вы не можете редактировать свои сообщения
Вы не можете удалять свои сообщения
Вы не можете голосовать в опросах
Вы не можете прикреплять файлы к сообщениям
Вы можете скачивать файлы