Статистика раздачи
Размер:  23,16 GB   |    Зарегистрирован:  5 месяцев 21 день   |    Скачан:  0 раз

Полного источника не было: Никогда

 
     
 
 

Гость ®

Пол:
Не указан

Её личная жизнь / Geunyeoui Sasaenghwal / Her Private Life
Страна: Южная Корея
Год выпуска: 2019
Жанр: Комедия, романтика
Продолжительность: 16 x ~01:02:00
Режиссер: Хон Чон Чхан
Сценарист: Ким Хе Ён
В ролях: Ким Чжэ Ук, Пак Чжин Чжу, Пак Мин Ён, Чон Вон Чхан, One, Ким Бо Ра, Им Джи Кю, Ли Кю Хён, Ан Бо Хён, Хон Со Ён, Ким Ми Гён, Пак Мён Син, Мэн Сан Хун
Перевод: Любительский двухголосый
автор перевода: фансаб-группу Chenderella - озвучка группы ВК: Храм Дорам ТВ: Olyushka & Ruben Mendez
Описание:
Сон Док Ми (Пак Мин Ён) живёт двойной жизнью, будучи куратором галереи и автором фан-сайта о Си Ане, участнике айдол-группы. Она — профессионал в обоих аспектах своей жизни, но из-за своей фанатской увлечённости Док Ми пришлось расстаться с несколькими парнями, решив вместо этого посвятить себя деятельности фанатки, а не свиданиям.
Райан (Ким Чжэ Ук) – новый директор в галерее, где работает Док Ми. Художник в прошлом, он был сенсацией в мире искусства с самого его дебюта и вплоть до ухода, и теперь он наслаждается карьерным успехом в качестве директора. Индивидуалист до мозга костей, Райан узнает о двойной жизни Док Ми.

Доп.информация: работа над проектом

Роли озвучивали: Olyushka, Ruben Mendez
За перевод благодарим: фансаб-группу Chenderella
озвучка группы ВК: Храм Дорам ТВ: Olyushka & Ruben Mendez

Отличия

http://cybertorrent.ru/viewtopic.php?t=5727798 - Альтернативная озвучка SOFTBOX Присутствует реклама (видео/аудио/лого)
Рекламы казино не обнаружено!
Неотключаемые субтитры: Без хардсаба
Русские субтитры: Нет
Оригинальная аудиодорожка: Нет
Качество видео: HDTVRip
Разрешение: 720p
Видео кодек: H264
Формат: mkv
Видео: 1280х720 pixels, ~2900Кбит/с, 29.970 fps, Серия 9: 1920х1080 pixels, ~5000Кбит/с
Аудио: AC-3, 192 Кбит/сек, 48 КГц, 2 канала Язык Русский (в составе контейнера)

MI

Общее
Уникальный идентификатор : 101748429941956149794429764063528246279 (0x4C8C08E8C8001C2F4CBABCDE8B1C5C07)
Полное имя : Z:\[Корейские сериалы]\002\Её личная жизнь [Храм Дорам_ТВ]\Her.Private.Life.E05.190424.720p-NEXT.mkv
Формат : Matroska
Версия формата : Version 4 / Version 2
Размер файла : 1,42 Гбайт
Продолжительность : 1 ч. 6 м.
Общий поток : 3052 Кбит/сек
Дата кодирования : UTC 2019-04-25 22:01:25
Программа кодирования : mkvmerge v32.0.0 ('Astral Progressions') 64-bit
Библиотека кодирования : libebml v1.3.7 + libmatroska v1.5.0
Видео
Идентификатор : 1
Формат : AVC
Формат/Информация : Advanced Video Codec
Профиль формата : High@L3.2
Настройки формата : CABAC / 3 Ref Frames
Параметр CABAC формата : Да
Параметр RefFrames формата : 3 кадра
Идентификатор кодека : V_MPEG4/ISO/AVC
Продолжительность : 1 ч. 6 м.
Битрейт : 2858 Кбит/сек
Ширина : 1280 пикселей
Высота : 720 пикселей
Соотношение сторон : 16:9
Режим частоты кадров : Постоянный
Частота кадров : 29,970 (30000/1001) кадров/сек
Цветовое пространство : YUV
Субдискретизация насыщенности : 4:2:0
Битовая глубина : 8 бит
Тип развёртки : Прогрессивная
Бит/(Пиксели*Кадры) : 0.103
Размер потока : 1,33 Гбайт (94%)
Default : Да
Forced : Нет
Аудио
Идентификатор : 2
Формат : AC-3
Формат/Информация : Audio Coding 3
Идентификатор кодека : A_AC3
Продолжительность : 1 ч. 6 м.
Вид битрейта : Постоянный
Битрейт : 192 Кбит/сек
Каналы : 2 канала
Расположение каналов : Front: L R
Частота : 48,0 КГц
Частота кадров : 31,250 кадров/сек (1536 SPF)
Битовая глубина : 16 бит
Метод сжатия : С потерями
Размер потока : 91,7 Мбайт (6%)
ServiceKind/String : Complete Main
Default : Да
Forced : Нет
[cybertorrent.ru].t5016.torrent 
Торрент: Зарегистрирован [ 2019-08-06 15:50 ] · 49152CA6EBE5E196C8CB8F0989E4581B3C8533DB

Скачать .torrent

Скачать

31 KB

Статус: проверено
Скачан: 0 раз
Размер: 23,16 GB
terms.php
Показать сообщения:    

Текущее время: 27-Янв 16:29

Часовой пояс: UTC ± 0



Вы не можете начинать темы
Вы не можете отвечать на сообщения
Вы не можете редактировать свои сообщения
Вы не можете удалять свои сообщения
Вы не можете голосовать в опросах
Вы не можете прикреплять файлы к сообщениям
Вы можете скачивать файлы