Статистика раздачи
Размер:  19 GB   |    Зарегистрирован:  1 месяц 2 дня   |    Скачан:  0 раз

Полного источника не было: Никогда

 
   
 
 

duda ®

Пол:
Не указан
Стаж:
3 месяца 5 дней
Сообщений:
190

Форс-мажоры / Костюмы в законе / Suits- Год выпуска: 2017
Страна: США / USA Network
Жанр: Драма, комедия
Продолжительность: ~ 00:42:00-Перевод: Профессиональный (двухголосый закадровый) | NewStudio-Режиссёр: Кевин Брэй, Джон Скотт-В ролях: Патрик Дж. Адамс, Гэбриел Махт, Меган Маркл, Джина Торрес, Рик Хоффман-Описание: В центре сюжета замечательный, но немотивированный молодой человек, так и не закончивший учебу в колледже. У него есть все необходимые качества, чтобы стать хорошим адвокатом, кроме диплома. Но благодаря знаниям законов улицы и напористым, не всегда честным действиям его нанимает влиятельная юридическая фирма из Манхэттена.- -[box=#aed8ff,#003465]Ссылка на предыдущие и альтернативные раздачи[/box]-[box]Огромное спасибо IDsign за дорогу без рекламы[/box]-Качество: WEB-DL 720p
Контейнер: MKV
Видео: 1280x720 (16:9), 23.976 fps, ~4065 kbps, 0.184 bit/pixel
Аудио Rus: 48 kHz, AC3, 3/2 (L,C,R,l,r) + LFE ch, 384 kbps | NewStudio
Аудио Eng: 48 kHz, AC3, 3/2 (L,C,R,l,r) + LFE ch, 384 kbps
Субтитры: Russian (Notabenoid), English
Реклама: Отсутствует-

Список серий

01. Комбо / Skin in the Game
02. Статуя / The Statue
03. Грязевой кошмар / Mudmare
04. Разделяй и властвуй / Divide and Conquer
05. Чего стоит твоё слово / Brooklyn Housing
06. Как аукнется так и откликнется / Home to Roost
07. Полная откровенность / Full Disclosure
08. 100 / 100
09. Позор / Shame
10. Донна / Donna
11. Горькая правда / Hard Truths
12.
13.
14.
15.
16.
-

MediaInfo

Общее
Уникальный идентификатор : 229784953765494540099445413762365953494 (0xACDEF8EA234AEAB790B40FD6871095D6)
Полное имя : E:\Movies\Suits (Season 7) 720 WEB-DL\Suits.s07e01.WEBDL.720p.mkv
Формат : Matroska
Версия формата : Version 4 / Version 2
Размер файла : 1,53 Гбайт
Продолжительность : 45 м. 16 с.
Общий поток : 4836 Кбит/сек
Дата кодирования : UTC 2017-07-21 05:04:55
Программа кодирования : mkvmerge v13.0.0 ('The Juggler') 32bit
Библиотека кодирования : libebml v1.3.4 + libmatroska v1.4.5
Видео
Идентификатор : 1
Формат : AVC
Формат/Информация : Advanced Video Codec
Профиль формата : High@L3.1
Настройки формата : 2 Ref Frames
Параметр CABAC формата : Нет
Параметр RefFrames формата : 2 кадра
Идентификатор кодека : V_MPEG4/ISO/AVC
Продолжительность : 45 м. 16 с.
Битрейт : 4065 Кбит/сек
Ширина : 1280 пикселей
Высота : 720 пикселей
Соотношение сторон : 16:9
Режим частоты кадров : Постоянный
Частота кадров : 23,976 (23976/1000) кадра/сек
Цветовое пространство : YUV
Субдискретизация насыщенности : 4:2:0
Битовая глубина : 8 бит
Тип развёртки : Прогрессивная
Бит/(Пиксели*Кадры) : 0.184
Размер потока : 1,29 Гбайт (84%)
Язык : English
Default : Да
Forced : Нет
Цветовой диапазон : Limited
Основные цвета : BT.709
Характеристики трансфера : BT.709
Коэффициенты матрицы : BT.709
Аудио #1
Идентификатор : 2
Формат : AC-3
Формат/Информация : Audio Coding 3
Параметр Endianness формата : Big
Идентификатор кодека : A_AC3
Продолжительность : 45 м. 16 с.
Вид битрейта : Постоянный
Битрейт : 384 Кбит/сек
Каналы : 6 каналов
Расположение каналов : Front: L C R, Side: L R, LFE
Частота : 48,0 КГц
Частота кадров : 31,250 кадров/сек (1536 SPF)
Битовая глубина : 16 бит
Метод сжатия : С потерями
Задержка видео : -30 мс.
Размер потока : 124 Мбайт (8%)
Язык : Russian
ServiceKind/String : Complete Main
Default : Да
Forced : Нет
Аудио #2
Идентификатор : 3
Формат : AC-3
Формат/Информация : Audio Coding 3
Параметр Endianness формата : Big
Идентификатор кодека : A_AC3
Продолжительность : 45 м. 16 с.
Вид битрейта : Постоянный
Битрейт : 384 Кбит/сек
Каналы : 6 каналов
Расположение каналов : Front: L C R, Side: L R, LFE
Частота : 48,0 КГц
Частота кадров : 31,250 кадров/сек (1536 SPF)
Битовая глубина : 16 бит
Метод сжатия : С потерями
Задержка видео : -42 мс.
Размер потока : 124 Мбайт (8%)
Язык : English
ServiceKind/String : Complete Main
Default : Нет
Forced : Нет
Текст #1
Идентификатор : 4
Формат : UTF-8
Идентификатор кодека : S_TEXT/UTF8
Идентификатор кодека/Информация : UTF-8 Plain Text
Продолжительность : 43 м. 18 с.
Битрейт : 205 бит/сек
ElementCount : 987
Размер потока : 65,0 Кбайт (0%)
Язык : Russian
Default : Да
Forced : Нет
Текст #2
Идентификатор : 5
Формат : UTF-8
Идентификатор кодека : S_TEXT/UTF8
Идентификатор кодека/Информация : UTF-8 Plain Text
Продолжительность : 43 м. 18 с.
Битрейт : 121 бит/сек
ElementCount : 987
Размер потока : 38,5 Кбайт (0%)
Язык : English
Default : Нет
Forced : Нет
-

Скриншоты

-

Внимание! Раздача ведётся путём добавления новых серий

Внимание! Раздача ведётся путём добавления новых серий; при каждом добавлении создаётся новый торрент. Чтобы начать докачку новой серии, пользователям необходимо сделать следующее:
(1) остановить скачивание,
(2) удалить старый торрент у себя из клиента (старые серии удалять не надо),
(3) скачать новый торрент и запустить его у себя в клиенте вместо старого, при этом указать клиенту путь в старую папку куда и должно происходить скачивание новых серий.
Ваш клиент при этом должен произвести хеширование (проверку) старой папки (если не производит сам - помогите ему сделать это), и будет докачивать только те серии которых у вас ещё нет. Старые серии при этом не удаляются, а продолжают раздаваться!
Eсли вы уже удалили старые серии, то предотвратить повторную закачку старых серий можно, отжав галочку в соответствующих местах при запуске нового торрента. По возможности, желательно не удалять старые серии как можно дольше чтобы релизёр не столько продолжал раздавать старые серии, а смог сконцентрироваться на новых.
[cybertorrent.ru].t50341.torrent 
Торрент: Зарегистрирован [ 2018-04-18 23:10 ] · 49B844D773499510EA311B71D7A1C870B31E8A7F

Скачать .torrent

Скачать

96 KB

Статус: проверено
Скачан: 0 раз
Размер: 19 GB
Профиль [ЛС]
Показать сообщения:    

Текущее время: 21-Май 22:48

Часовой пояс: UTC ± 0



Вы не можете начинать темы
Вы не можете отвечать на сообщения
Вы не можете редактировать свои сообщения
Вы не можете удалять свои сообщения
Вы не можете голосовать в опросах
Вы не можете прикреплять файлы к сообщениям
Вы можете скачивать файлы