Статистика раздачи
Размер:  268 MB   |    Зарегистрирован:  1 месяц 2 дня   |    Скачан:  0 раз

Полного источника не было: Никогда

 
   
 
 

fill ®

Пол:
Не указан
Стаж:
3 месяца 6 дней
Сообщений:
187

Наталья Соболева / Однажды в Америке
Жанр: Mainstream Jazz
Носитель: CD
Год издания: 2006
Аудиокодек: FLAC (*.flac)
Тип рипа: image+.cue
Битрейт аудио: lossless
Продолжительность: 00:44:10
Источник (релизер): CD из личной коллекции
Наличие сканов в содержимом раздачи: нет
Треклист:
01 - April in Paris
02 - All of me
03 - I can't give you anything but love
04 - Pell me a grape
05 - Is You is(Or Is You Ain`t)
06 - How high the moon
07 - Pink Panter
08 - Summertime
09 - Route 66
10 - Tear for two
11 - Caravan

Лог создания рипа

Exact Audio Copy V1.0 beta 3 from 29. August 2011
Отчёт EAC об извлечении, выполненном 15. июля 2017, 0:51
Наталья Соболева / Однажды в Америке
Дисковод: Optiarc DVD RW AD-7243S Adapter: 0 ID: 1
Режим чтения : Достоверность
Использование точного потока : Да
Отключение кэша аудио : Да
Использование указателей C2 : Нет
Коррекция смещения при чтении : 48
Способность читать области Lead-in и Lead-out : Нет
Заполнение пропущенных сэмплов тишиной : Да
Удаление блоков с тишиной в начале и конце : Нет
При вычислениях CRC использовались нулевые сэмплы : Да
Интерфейс : Встроенный Win32-интерфейс для Win NT/2000
Выходной формат : Пользовательский кодировщик
Выбранный битрейт : 128 kBit/s
Качество : Высокий
Добавление ID3-тега : Нет
Утилита сжатия : C:\Program Files (x86)\Exact Audio Copy\Flac\flac.exe
Дополнительные параметры : -V -8 -T "Date=%year%" -T "Genre=%genre%" %source%
TOC извлечённого CD
Трек | Старт | Длительность | Начальный сектор | Конечный сектор
---------------------------------------------------------------------
1 | 0:00.00 | 2:43.46 | 0 | 12270
2 | 2:43.46 | 3:16.38 | 12271 | 27008
3 | 6:00.09 | 3:32.25 | 27009 | 42933
4 | 9:32.34 | 5:05.05 | 42934 | 65813
5 | 14:37.39 | 5:53.17 | 65814 | 92305
6 | 20:30.56 | 2:24.72 | 92306 | 103177
7 | 22:55.53 | 3:38.18 | 103178 | 119545
8 | 26:33.71 | 4:32.39 | 119546 | 139984
9 | 31:06.35 | 2:57.26 | 139985 | 153285
10 | 34:03.61 | 4:35.52 | 153286 | 173962
11 | 38:39.38 | 5:30.49 | 173963 | 198761
Характеристики диапазона извлечения и сообщения об ошибках
Выбранный диапазон
Имя файла E:\Temp\Наталья Соболева - Однажды в Америке.wav
Пиковый уровень 98.0 %
Скорость извлечения 4.0 X
Качество диапазона 100.0 %
CRC теста 488E24E2
CRC копии 488E24E2
Копирование... OK
Ошибок не произошло
AccurateRip: сводка
Трек 1 отсутствует в базе данных
Трек 2 отсутствует в базе данных
Трек 3 отсутствует в базе данных
Трек 4 отсутствует в базе данных
Трек 5 отсутствует в базе данных
Трек 6 отсутствует в базе данных
Трек 7 отсутствует в базе данных
Трек 8 отсутствует в базе данных
Трек 9 отсутствует в базе данных
Трек 10 отсутствует в базе данных
Трек 11 отсутствует в базе данных
Ни одного трека нет в базе AccurateRip
Конец отчёта
==== Контрольная сумма отчёта 5A27DD9F35E896DBD5D9BAF26E7A0EA0B57B88EB33D5AA1A0B0AB5451C4F7E78 ====
[cybertorrent.ru].t50357.torrent 
Торрент: Зарегистрирован [ 2018-04-18 23:10 ] · 89C9DA52E73656BE42948CEC8BE2658874820C1E

Скачать .torrent

Скачать

11 KB

Статус: проверено
Скачан: 0 раз
Размер: 268 MB
Профиль [ЛС]
Показать сообщения:    

Текущее время: 21-Май 22:40

Часовой пояс: UTC ± 0



Вы не можете начинать темы
Вы не можете отвечать на сообщения
Вы не можете редактировать свои сообщения
Вы не можете удалять свои сообщения
Вы не можете голосовать в опросах
Вы не можете прикреплять файлы к сообщениям
Вы можете скачивать файлы