BitTorrent клиенты



Особь 2 / Species II (Питер Медак / Peter Medak) [1998, США, ужасы, фантастика, боевик, триллер, HDTVRip 720p] AVO + Original Eng

Ответить на тему
Статистика раздачи
Размер:  4,33 GB   |    Зарегистрирован:  6 месяцев 15 дней   |    Скачан:  0 раз

Полного источника не было: Никогда

 
   
 
 
Автор Сообщение

RussianGirl ®

Пол: Не указан

Стаж: 1 год

Сообщений: 1309

Создавать темы 08-Авг-2018 15:49

[Цитировать]

Особь 2 / Species II
Страна: США
Жанр: ужасы, фантастика, боевик, триллер
Год выпуска: 1998
Продолжительность: 01:32:59
Перевод: Авторский (одноголосый, закадровый)
Субтитры: нет
Оригинальная аудиодорожка: английская
Режиссер: Питер Медак / Peter Medak
В ролях: Майкл Мэдсен, Наташа Хенстридж, Марг Хельгенбергер, Майкелти Уильямсон, Джордж Дзундза, Джеймс Кромуэлл, Мириам Сир, Сара Уайнтер, Бакстер Харрис, Джастин Лазард
Описание: Ученые — астронавты возвращаются на Землю после успешной экспедиции на Марс. Однако с различными пробами на корабль проникает нечто ужасное, что угрожает жизни землян. Один из участников полета превращается в неземную тварь и жаждет наплодить себе подобных. Ему необходимо встретиться с другой особью, которую изучают в лаборатории. Этого не должно произойти…
Великолепные спецэффекты дают ощущение реальности происходящего и поражают воображение. Высококлассная работа выполнена той же командой художников, которая делала первый фильм.
Тип релиза: HDTVRip
Контейнер: MKV
Видео: MS (1280x720(0.261)) MPEG-4 Visual, 23,976 кадр/сек, 5764 Кбит/сек
Аудио: English (Dolby AC-3, 6 ch) 384 Кбит/сек, 48.0 КГц
Аудио 2: Russian (Dolby AC-3, 2 ch) 384 Кбит/сек, 44.1 КГц, Ю. Живов

MediaInfo

Общее
Полное имя : Species.2.HDTV.720p.mkv
Формат : Matroska
Версия формата : Version 1
Размер файла : 4,33 Гбайт
Продолжительность : 1 ч. 32 м.
Общий поток : 6665 Кбит/сек
Дата кодирования : UTC 2008-08-06 16:16:55
Программа кодирования : mkvmerge v2.1.0 ('Another Place To Fall') built on Aug 19 2007 13:40:07
Библиотека кодирования : libebml v0.7.7 + libmatroska v0.8.1
Видео
Идентификатор : 1
Формат : MPEG-4 Visual
Профиль формата : Advanced Simple@L5
Настройки формата : BVOP2
Параметр BVOP формата : 2
Параметр QPel формата : Нет
Параметр GMC формата : Без точки перехода
Параметр матрицы формата : Default (MPEG)
Режим смешивания : Сжатый битовый поток
Идентификатор кодека : V_MS/VFW/FOURCC / XVID
Идентификатор кодека/Подсказка : XviD
Продолжительность : 1 ч. 32 м.
Битрейт : 5764 Кбит/сек
Ширина : 1280 пикселей
Высота : 720 пикселей
Соотношение сторон : 16:9
Режим частоты кадров : Постоянный
Частота кадров : 23,976 (23976/1000) кадра/сек
Цветовое пространство : YUV
Субдискретизация насыщенности : 4:2:0
Битовая глубина : 8 бит
Тип развёртки : Прогрессивная
Метод сжатия : С потерями
Бит/(Пиксели*Кадры) : 0.261
Размер потока : 3,74 Гбайт (86%)
Библиотека кодирования : XviD 1.2.0SMP (UTC 2006-01-08)
Default : Да
Forced : Нет
Аудио #1
Идентификатор : 2
Формат : AC-3
Формат/Информация : Audio Coding 3
Идентификатор кодека : A_AC3
Продолжительность : 1 ч. 32 м.
Вид битрейта : Постоянный
Битрейт : 384 Кбит/сек
Каналы : 6 каналов
Расположение каналов : Front: L C R, Side: L R, LFE
Частота : 48,0 КГц
Частота кадров : 31,250 кадров/сек (1536 SPF)
Битовая глубина : 16 бит
Метод сжатия : С потерями
Размер потока : 255 Мбайт (6%)
ServiceKind/String : Complete Main
Default : Да
Forced : Нет
Аудио #2
Идентификатор : 3
Формат : AC-3
Формат/Информация : Audio Coding 3
Идентификатор кодека : A_AC3
Продолжительность : 1 ч. 32 м.
Вид битрейта : Постоянный
Битрейт : 384 Кбит/сек
Каналы : 2 канала
Расположение каналов : Front: L R
Частота : 44,1 КГц
Частота кадров : 28,711 кадров/сек (1536 SPF)
Битовая глубина : 16 бит
Метод сжатия : С потерями
Размер потока : 255 Мбайт (6%)
ServiceKind/String : Complete Main
Default : Нет
Forced : Нет

Скриншоты

[cybertorrent.ru].t50408.torrent 
Торрент: Зарегистрирован [ 2018-08-08 15:50 ] · 665D336A9049979BA1136BA0CFAC3CF67052540F

Скачать .torrent

Скачать

11 KB

Статус: проверено
Скачан: 0 раз
Размер: 4,33 GB
terms.php
[Профиль] [ЛС]
Показать сообщения:    
Ответить на тему

Текущее время: 23-Фев 16:05

Часовой пояс: UTC + 3



Вы не можете начинать темы
Вы не можете отвечать на сообщения
Вы не можете редактировать свои сообщения
Вы не можете удалять свои сообщения
Вы не можете голосовать в опросах
Вы не можете прикреплять файлы к сообщениям
Вы можете скачивать файлы