Статистика раздачи
Размер:  489 MB   |    Зарегистрирован:  1 месяц 2 дня   |    Скачан:  0 раз

Полного источника не было: Никогда

 
   
 
 

mazay ®

Пол:
Не указан
Стаж:
3 месяца 5 дней
Сообщений:
137

Нямбуугийн Баянмунх / Нямбуугийн Баянмөнх / Аархал (Морины тухай шилдэг дуунууд)
Жанр: Mongolian National Folk
Носитель: CD
Страна-производитель диска (релиза): Монголия
Год издания: 2015
Издатель (лейбл): "БОДОЛ ШИГ" СТУДИ
Страна исполнителя (группы): Монголия
Аудиокодек: FLAC (*.flac)
Тип рипа: image+.cue
Битрейт аудио: lossless
Продолжительность: 01:08:04
Источник (релизер): Cyrmaran
Наличие сканов в содержимом раздачи: нет
Треклист:
1. Аархал
2. Морьд ирлээ
3. Монгол наадам
4. Алтан туурайт ажнай
5. Арслан хар
6. Суман хүрэн
7. Хурдан морьтын борууд
8. Даншиг зээрд
9. Тэргүүн хонгор
10. Аварга цэгээн
11. Нарны хүлэг
12. Амгалан хонгор
13. Егүзэр хээр
14. Шилийн хурд
15. Салхин зээрд
16. Соёолон зээрд
17. Тажин хээр
18. Хурдан хар
19. Шилийн голын хүлгүүд

Лог создания рипа

Exact Audio Copy V1.3 from 2. September 2016
Отчёт EAC об извлечении, выполненном 13. августа 2017, 11:25
Нямбуугийн Баянмөнх / Аархал (Морины тухай шилдэг дуунууд)
Дисковод: ASUS DRW-2014S1 Adapter: 1 ID: 0
Режим чтения : Достоверность
Использование точного потока : Да
Отключение кэша аудио : Да
Использование указателей C2 : Нет
Коррекция смещения при чтении : 6
Способность читать области Lead-in и Lead-out : Нет
Заполнение пропущенных сэмплов тишиной : Да
Удаление блоков с тишиной в начале и конце : Нет
При вычислениях CRC использовались нулевые сэмплы : Да
Интерфейс : Встроенный Win32-интерфейс для Win NT/2000
Выходной формат : Пользовательский кодировщик
Выбранный битрейт : 192 kBit/s
Качество : Высокий
Добавление ID3-тега : Да
Утилита сжатия : C:\Program Files (x86)\Exact Audio Copy\FLAC\FLAC.EXE
Дополнительные параметры : -V -8 -T "ARTIST=%artist%" -T "TITLE=%title%" -T "ALBUM=%albumtitle%" -T "DATE=%year%" -T "TRACKNUMBER=%tracknr%" -T "GENRE=%genre%" -T "COMMENT=%comment%" -T "BAND=%albuminterpret%" -T "ALBUMARTIST=%albuminterpret%" -T "COMPOSER=%composer%" %haslyrics%--tag-from-file=LYRICS="%lyricsfile%"%haslyrics% -T "DISCNUMBER=%cdnumber%" -T "TOTALDISCS=%totalcds%" -T "TOTALTRACKS=%numtracks%" %hascover%--picture="%coverfile%"%hascover% %source% -o %dest%
TOC извлечённого CD
Трек | Старт | Длительность | Начальный сектор | Конечный сектор
---------------------------------------------------------------------
1 | 0:00.00 | 3:31.14 | 0 | 15838
2 | 3:31.14 | 2:39.34 | 15839 | 27797
3 | 6:10.48 | 4:03.45 | 27798 | 46067
4 | 10:14.18 | 3:31.29 | 46068 | 61921
5 | 13:45.47 | 3:54.74 | 61922 | 79545
6 | 17:40.46 | 4:11.57 | 79546 | 98427
7 | 21:52.28 | 3:47.02 | 98428 | 115454
8 | 25:39.30 | 2:35.66 | 115455 | 127145
9 | 28:15.21 | 4:18.69 | 127146 | 146564
10 | 32:34.15 | 2:22.19 | 146565 | 157233
11 | 34:56.34 | 3:58.00 | 157234 | 175083
12 | 38:54.34 | 3:16.57 | 175084 | 189840
13 | 42:11.16 | 3:58.74 | 189841 | 207764
14 | 46:10.15 | 3:29.35 | 207765 | 223474
15 | 49:39.50 | 4:03.18 | 223475 | 241717
16 | 53:42.68 | 3:03.06 | 241718 | 255448
17 | 56:45.74 | 2:45.74 | 255449 | 267897
18 | 59:31.73 | 3:13.37 | 267898 | 282409
19 | 62:45.35 | 5:19.37 | 282410 | 306371
Характеристики диапазона извлечения и сообщения об ошибках
Выбранный диапазон
Имя файла E:\Temp\Bayanmunh\image.wav
Пиковый уровень 100.0 %
Скорость извлечения 3.0 X
Качество диапазона 100.0 %
CRC теста 0987AF1B
CRC копии 0987AF1B
Копирование... OK
Ошибок не произошло
Конец отчёта
---- CUETools DB Plugin V2.1.6
[CTDB TOCID: zI6Pco2ZwLlrwyspcQS4Del99Kg-] found
Submit result: already submitted
Track | CTDB Status
1 | (1/1) Accurately ripped
2 | (1/1) Accurately ripped
3 | (1/1) Accurately ripped
4 | (1/1) Accurately ripped
5 | (1/1) Accurately ripped
6 | (1/1) Accurately ripped
7 | (1/1) Accurately ripped
8 | (1/1) Accurately ripped
9 | (1/1) Accurately ripped
10 | (1/1) Accurately ripped
11 | (1/1) Accurately ripped
12 | (1/1) Accurately ripped
13 | (1/1) Accurately ripped
14 | (1/1) Accurately ripped
15 | (1/1) Accurately ripped
16 | (1/1) Accurately ripped
17 | (1/1) Accurately ripped
18 | (1/1) Accurately ripped
19 | (1/1) Accurately ripped
==== Контрольная сумма отчёта 81E791A2CFB836349BC860AFD742A0AAE0564DE728F72E31B34F66FB8520465F ====

Скриншот спектра частот

Доп. информация: Музыка в стиле "Монгол скачет на лошади и поёт, а лошадь ржёт".
Диск куплен в Улан-Баторе.
[cybertorrent.ru].t50435.torrent 
Торрент: Зарегистрирован [ 2018-04-19 06:40 ] · 26DB2A58E594E97E84DBF2B2BCB8004A5C2FB3E0

Скачать .torrent

Скачать

20 KB

Статус: проверено
Скачан: 0 раз
Размер: 489 MB
Профиль [ЛС]
Показать сообщения:    

Текущее время: 21-Май 22:45

Часовой пояс: UTC ± 0



Вы не можете начинать темы
Вы не можете отвечать на сообщения
Вы не можете редактировать свои сообщения
Вы не можете удалять свои сообщения
Вы не можете голосовать в опросах
Вы не можете прикреплять файлы к сообщениям
Вы можете скачивать файлы