Статистика раздачи
Размер:  600 MB   |    Зарегистрирован:  1 месяц 2 дня   |    Скачан:  0 раз

Полного источника не было: Никогда

 
   
 
 

Олита ®

Пол:
Не указан
Стаж:
3 месяца 5 дней
Сообщений:
200

Ментовские войны. Одесса- Год выпуска: 2017
Производство: Киев телефильм по заказу телеканала 2+2
Жанр: Драма, детектив, криминал
Продолжительность: 00:45:00
Субтитры: нет-Режиссёр: Валерий Ибрагимов-В ролях: Прохор Дубравин, Михаил Шамигулов, Игорь Петрусенко, Сергей Кучера, Анна Сагайдачная, Пётр Сова, Тарас Цимбалюк, Тарас Мельничук, Вадим Акимкин, Анастасия Гиренкова, Татьяна Юрикова, Кристина Мельниченко, София Котлярова, Роман Ясиновский, Дмитрий Меленевский, Игорь Лысюк, Вячеслав Николенко, Александр Онуфриев, Елена Светлицкая, Станислав Лесной, Всеволод Шекита, Владимир Мельник, Игорь Головин, Ярослав Гуревич
Описание: Артём Родионов (роль исполняет Михаил Шамигулов) опытный и принципиальный оперативник ведет борьбу с не на шутку разгулявшимися преступными элементами, среди который особо выделяется бандит по кличке "Медведь" (роль исполняет Вадим Акимкин). Разумеется Родионову предстоит преодолеть громадное количество проблем чтобы навести порядок в городе. А помогать ему в борьбе с криминальным миром будут сотрудники УГРО Артур Савчук (роль исполняет Игорь Петрусенко) и Валентин Могилевский (роль исполняет Сергей Кучера).-Все раздачи сериала / Сэмпл-Релиз группа: -Качество: WEBRip
Формат: AVI
Видео кодек: XviD
Аудио кодек: AC3
Видео: 720x400 (16:9), 25.000 fps, XviD build 73, 1520 kb/s, 0.21 bits/pixel
Аудио: 48 kHz, AC3 Dolby Digital, 2 ch, 192 Kbps-Реклама: Нет-

MI

General
Complete name : Downloads\Mentovskie.vojny,Odesa.2017.WEB-DLRip.Files-x
Format : AVI
Format/Info : Audio Video Interleave
File size : 600 MiB
Duration : 48mn 44s
Overall bit rate : 1 721 Kbps
Writing application : VirtualDubMod 1.5.10.3 | www.virtualdub-fr.org || (build 2550/release)
Writing library : VirtualDubMod build 2550/release
Video #0
ID : 0
Format : MPEG-4 Visual
Format profile : Advanced Simple@L5
Format settings, BVOP : 1
Format settings, QPel : No
Format settings, GMC : No warppoints
Format settings, Matrix : Custom
Codec ID : XVID
Codec ID/Hint : XviD
Duration : 48mn 44s
Bit rate : 1 520 Kbps
Width : 720 pixels
Height : 400 pixels
Display aspect ratio : 16:9
Frame rate : 25.000 fps
Color space : YUV
Chroma subsampling : 4:2:0
Bit depth : 8 bits
Scan type : Progressive
Compression mode : Lossy
Bits/(Pixel*Frame) : 0.211
Stream size : 530 MiB (88%)
Writing library : XviD 73
Audio #1
ID : 1
Format : AC-3
Format/Info : Audio Coding 3
Mode extension : CM (complete main)
Format settings, Endianness : Big
Codec ID : 2000
Duration : 48mn 44s
Bit rate mode : Constant
Bit rate : 192 Kbps
Channel(s) : 2 channels
Channel positions : Front: L R
Sampling rate : 48.0 KHz
Bit depth : 16 bits
Compression mode : Lossy
Stream size : 66.9 MiB (11%)
Alignment : Split accross interleaves
Interleave, duration : 40 ms (1.00 video frame)
Interleave, preload duration : 500 ms

Скриншоты

Внимание! Раздача ведётся путём добавления новых серий:

(1) остановить скачивание,
(2) удалить старый торрент у себя из клиента (старые серии удалять не надо),
(3) скачать новый торрент и запустить его у себя в клиенте вместо старого, при этом указать клиенту путь в старую папку куда и должно происходить скачивание новых серий.
Ваш клиент при этом должен произвести хеширование (проверку) старой папки (если не производит сам - помогите ему сделать это), и будет докачивать только те серии которых у вас ещё нет. Старые серии при этом не удаляются, а продолжают раздаваться!
Eсли вы уже удалили старые серии, то предотвратить повторную закачку старых серий можно, отжав галочку в соответсвующих местах при запуске нового торрента. По возможности, желательно не удалять старые серии как можно дольше чтобы релизёр не столько продолжал раздавать старые серии, а смог сконцентрироваться на новых
.
[cybertorrent.ru].t50481.torrent 
Торрент: Зарегистрирован [ 2018-04-19 06:40 ] · D22C25DB8C4D91C4F5DF41CF02564C90BD38CDED

Скачать .torrent

Скачать

12 KB

Статус: проверено
Скачан: 0 раз
Размер: 600 MB
Профиль [ЛС]
Показать сообщения:    

Текущее время: 22-Май 00:27

Часовой пояс: UTC ± 0



Вы не можете начинать темы
Вы не можете отвечать на сообщения
Вы не можете редактировать свои сообщения
Вы не можете удалять свои сообщения
Вы не можете голосовать в опросах
Вы не можете прикреплять файлы к сообщениям
Вы можете скачивать файлы