Статистика раздачи
Размер:  426 MB   |    Зарегистрирован:  1 месяц 2 дня   |    Скачан:  0 раз

Полного источника не было: Никогда

 
   
 
 

Sinoptik ®

Пол:
Не указан
Стаж:
3 месяца 3 дня
Сообщений:
150

[sound collage | field recordings | nature recordings flac | tracks+cue | lossless | cd]
Graham Lambkin / Taku Unami
(Graham Lambkin: 1973 Dover, Kent, UK)
(Taku Unami: 1976 Tokyo, Tokyo, Japan)
"The Whistler"
(Erstwhile Records, erstwhile 081-2, USA, 2017 Λpollo)

CD 1. Whistler Vanishes in Wind:
01. Part 1 (06:44)
02. Part 2 (01:35)
03. Part 3 (07:28)
04. Part 4 (09:25)
05. Part 5 (07:00)
06. Part 6 (03:45)
07. Part 7 (13:03)
CD 2. Small Mistakes in Nature:
01. Part 1 (08:43)
02. Part 2 (09:26)
03. Part 3 (07:00)
04. Part 4 (09:06)
05. Part 5 (08:10)
total length (01:31:20)

Сканов в раздаче нет

CD 1. EAC

Exact Audio Copy V1.1 from 23. June 2015
EAC extraction logfile from 10. July 2017, 17:58
Graham Lambkin & Taku Unami / The Whistler (Disc 1)
Used drive : SONY CDRW/DVD CRX830E Adapter: 1 ID: 1
Read mode : Secure
Utilize accurate stream : Yes
Defeat audio cache : Yes
Make use of C2 pointers : No
Read offset correction : 6
Overread into Lead-In and Lead-Out : No
Fill up missing offset samples with silence : Yes
Delete leading and trailing silent blocks : No
Null samples used in CRC calculations : Yes
Used interface : Native Win32 interface for Win NT & 2000
Gap handling : Appended to previous track
Used output format : User Defined Encoder
Selected bitrate : 1024 kBit/s
Quality : High
Add ID3 tag : No
Command line compressor : C:\Program Files (x86)\Exact Audio Copy\Flac\flac.exe
Additional command line options : -8 -e -V -T "ARTIST=%artist%" -T "TITLE=%title%" -T "ALBUM=%albumtitle%" -T "DATE=%year%" -T "TRACKNUMBER=%tracknr%" -T "GENRE=%genre%" -T "PERFORMER=%albuminterpret%" -T "COMPOSER=%composer%" %haslyrics%--tag-from-file=LYRICS="%lyricsfile%"%haslyrics% -T "ALBUMARTIST=%albumartist%" -T "DISCNUMBER=%cdnumber%" -T "TOTALDISCS=%totalcds%" -T "TOTALTRACKS=%numtracks%" -T "COMMENT=%comment%" %source% -o %dest%
TOC of the extracted CD
Track | Start | Length | Start sector | End sector
---------------------------------------------------------
1 | 0:00.00 | 6:43.36 | 0 | 30260
2 | 6:43.36 | 1:34.17 | 30261 | 37327
3 | 8:17.53 | 7:27.46 | 37328 | 70898
4 | 15:45.24 | 9:24.45 | 70899 | 113243
5 | 25:09.69 | 6:59.18 | 113244 | 144686
6 | 32:09.12 | 3:44.44 | 144687 | 161530
7 | 35:53.56 | 13:02.69 | 161531 | 220249
Track 1
Filename C:\Everything\ripz\Graham Lambkin & Taku Unami - The Whistler FLAC\Disc 1\01 - Whistler Vanished in Wind 1.wav
Pre-gap length 0:00:02.00
Peak level 99.6 %
Extraction speed 2.5 X
Track quality 100.0 %
Test CRC F21BC571
Copy CRC F21BC571
Track not present in AccurateRip database
Copy OK
Track 2
Filename C:\Everything\ripz\Graham Lambkin & Taku Unami - The Whistler FLAC\Disc 1\02 - Whistler Vanished in Wind 2.wav
Peak level 99.6 %
Extraction speed 2.6 X
Track quality 100.0 %
Test CRC DF027935
Copy CRC DF027935
Track not present in AccurateRip database
Copy OK
Track 3
Filename C:\Everything\ripz\Graham Lambkin & Taku Unami - The Whistler FLAC\Disc 1\03 - Whistler Vanished in Wind 3.wav
Peak level 99.6 %
Extraction speed 2.9 X
Track quality 100.0 %
Test CRC A6D13C5B
Copy CRC A6D13C5B
Track not present in AccurateRip database
Copy OK
Track 4
Filename C:\Everything\ripz\Graham Lambkin & Taku Unami - The Whistler FLAC\Disc 1\04 - Whistler Vanished in Wind 4.wav
Peak level 99.6 %
Extraction speed 3.3 X
Track quality 100.0 %
Test CRC 3E23E064
Copy CRC 3E23E064
Track not present in AccurateRip database
Copy OK
Track 5
Filename C:\Everything\ripz\Graham Lambkin & Taku Unami - The Whistler FLAC\Disc 1\05 - Whistler Vanished in Wind 5.wav
Peak level 99.6 %
Extraction speed 3.6 X
Track quality 100.0 %
Test CRC B50AFCE5
Copy CRC B50AFCE5
Track not present in AccurateRip database
Copy OK
Track 6
Filename C:\Everything\ripz\Graham Lambkin & Taku Unami - The Whistler FLAC\Disc 1\06 - Whistler Vanished in Wind 6.wav
Peak level 99.6 %
Extraction speed 3.7 X
Track quality 100.0 %
Test CRC E6D45815
Copy CRC E6D45815
Track not present in AccurateRip database
Copy OK
Track 7
Filename C:\Everything\ripz\Graham Lambkin & Taku Unami - The Whistler FLAC\Disc 1\07 - Whistler Vanished in Wind 7.wav
Peak level 99.6 %
Extraction speed 3.6 X
Track quality 100.0 %
Test CRC B47F9445
Copy CRC B47F9445
Track not present in AccurateRip database
Copy OK
None of the tracks are present in the AccurateRip database
No errors occurred
End of status report
---- CUETools DB Plugin V2.1.6
[CTDB TOCID: A9ZaPPFpG3eMWiLbQZ.GnvIftk4-] disk not present in database
Submit result: A9ZaPPFpG3eMWiLbQZ.GnvIftk4- has been uploaded
==== Log checksum A4D3A336FA7A31DC7CC367CC01D55D4D286BE220E210C89EFAF4E3CB12703FC9 ====

CD 1. CUE

REM GENRE "Sound Collage"
REM DATE 2017
REM DISCID 580B7807
REM COMMENT "ExactAudioCopy v1.1"
PERFORMER "Graham Lambkin / Taku Unami"
TITLE "The Whistler"
FILE "01. Whistler Vanished in Wind, Part 1.wav" WAVE
TRACK 01 AUDIO
TITLE "Whistler Vanished in Wind, Part 1"
PERFORMER "Graham Lambkin / Taku Unami"
INDEX 01 00:00:00
FILE "02. Whistler Vanished in Wind, Part 2.wav" WAVE
TRACK 02 AUDIO
TITLE "Whistler Vanished in Wind, Part 2"
PERFORMER "Graham Lambkin / Taku Unami"
INDEX 01 00:00:00
FILE "03. Whistler Vanished in Wind, Part 3.wav" WAVE
TRACK 03 AUDIO
TITLE "Whistler Vanished in Wind, Part 3"
PERFORMER "Graham Lambkin / Taku Unami"
INDEX 01 00:00:00
FILE "04. Whistler Vanished in Wind, Part 4.wav" WAVE
TRACK 04 AUDIO
TITLE "Whistler Vanished in Wind, Part 4"
PERFORMER "Graham Lambkin / Taku Unami"
INDEX 01 00:00:00
FILE "05. Whistler Vanished in Wind, Part 5.wav" WAVE
TRACK 05 AUDIO
TITLE "Whistler Vanished in Wind, Part 5"
PERFORMER "Graham Lambkin / Taku Unami"
INDEX 01 00:00:00
FILE "06. Whistler Vanished in Wind, Part 6.wav" WAVE
TRACK 06 AUDIO
TITLE "Whistler Vanished in Wind, Part 6"
PERFORMER "Graham Lambkin / Taku Unami"
INDEX 01 00:00:00
FILE "07. Whistler Vanished in Wind, Part 7.wav" WAVE
TRACK 07 AUDIO
TITLE "Whistler Vanished in Wind, Part 7"
PERFORMER "Graham Lambkin / Taku Unami"
INDEX 01 00:00:00

CD 2. EAC

Exact Audio Copy V1.1 from 23. June 2015
EAC extraction logfile from 10. July 2017, 18:28
Graham Lambkin & Taku Unami / The Whistler
Used drive : SONY CDRW/DVD CRX830E Adapter: 1 ID: 1
Read mode : Secure
Utilize accurate stream : Yes
Defeat audio cache : Yes
Make use of C2 pointers : No
Read offset correction : 6
Overread into Lead-In and Lead-Out : No
Fill up missing offset samples with silence : Yes
Delete leading and trailing silent blocks : No
Null samples used in CRC calculations : Yes
Used interface : Native Win32 interface for Win NT & 2000
Gap handling : Appended to previous track
Used output format : User Defined Encoder
Selected bitrate : 1024 kBit/s
Quality : High
Add ID3 tag : No
Command line compressor : C:\Program Files (x86)\Exact Audio Copy\Flac\flac.exe
Additional command line options : -8 -e -V -T "ARTIST=%artist%" -T "TITLE=%title%" -T "ALBUM=%albumtitle%" -T "DATE=%year%" -T "TRACKNUMBER=%tracknr%" -T "GENRE=%genre%" -T "PERFORMER=%albuminterpret%" -T "COMPOSER=%composer%" %haslyrics%--tag-from-file=LYRICS="%lyricsfile%"%haslyrics% -T "ALBUMARTIST=%albumartist%" -T "DISCNUMBER=%cdnumber%" -T "TOTALDISCS=%totalcds%" -T "TOTALTRACKS=%numtracks%" -T "COMMENT=%comment%" %source% -o %dest%
TOC of the extracted CD
Track | Start | Length | Start sector | End sector
---------------------------------------------------------
1 | 0:00.00 | 8:42.23 | 0 | 39172
2 | 8:42.23 | 9:25.67 | 39173 | 81614
3 | 18:08.15 | 6:59.54 | 81615 | 113093
4 | 25:07.69 | 9:05.07 | 113094 | 153975
5 | 34:13.01 | 8:09.46 | 153976 | 190696
Track 1
Filename C:\Everything\ripz\Graham Lambkin & Taku Unami - The Whistler FLAC\Disc 2\01 - Small Mistakes in Nature 1.wav
Pre-gap length 0:00:02.00
Peak level 99.7 %
Extraction speed 2.4 X
Track quality 100.0 %
Test CRC 4297C4D5
Copy CRC 4297C4D5
Track not present in AccurateRip database
Copy OK
Track 2
Filename C:\Everything\ripz\Graham Lambkin & Taku Unami - The Whistler FLAC\Disc 2\02 - Small Mistakes in Nature 2.wav
Peak level 99.7 %
Extraction speed 2.9 X
Track quality 100.0 %
Test CRC 286B10C5
Copy CRC 286B10C5
Track not present in AccurateRip database
Copy OK
Track 3
Filename C:\Everything\ripz\Graham Lambkin & Taku Unami - The Whistler FLAC\Disc 2\03 - Small Mistakes in Nature 3.wav
Peak level 99.7 %
Extraction speed 3.0 X
Track quality 100.0 %
Test CRC 64B14D6D
Copy CRC 64B14D6D
Track not present in AccurateRip database
Copy OK
Track 4
Filename C:\Everything\ripz\Graham Lambkin & Taku Unami - The Whistler FLAC\Disc 2\04 - Small Mistakes in Nature 4.wav
Peak level 99.7 %
Extraction speed 3.4 X
Track quality 99.9 %
Test CRC 36A91DAD
Copy CRC 36A91DAD
Track not present in AccurateRip database
Copy OK
Track 5
Filename C:\Everything\ripz\Graham Lambkin & Taku Unami - The Whistler FLAC\Disc 2\05 - Small Mistakes in Nature 5.wav
Peak level 99.7 %
Extraction speed 3.5 X
Track quality 100.0 %
Test CRC F06AC3B3
Copy CRC F06AC3B3
Track not present in AccurateRip database
Copy OK
None of the tracks are present in the AccurateRip database
No errors occurred
End of status report
---- CUETools DB Plugin V2.1.6
[CTDB TOCID: PQdChuHWvV0AVJyxU5DUPDAVLvc-] disk not present in database
Submit result: PQdChuHWvV0AVJyxU5DUPDAVLvc- has been uploaded
==== Log checksum FF93BF1A1E6AE81C4ECFC00781D5DDFCDA64880B76EB43E57637162C787374E8 ====

CD 2. CUE

REM GENRE "Sound Collage"
REM DATE 2017
REM DISCID 3209EE05
REM COMMENT "ExactAudioCopy v1.1"
PERFORMER "Graham Lambkin / Taku Unami"
TITLE "The Whistler"
FILE "01. Small Mistakes in Nature, Part 1.wav" WAVE
TRACK 01 AUDIO
TITLE "Small Mistakes in Nature, Part 1"
PERFORMER "Graham Lambkin / Taku Unami"
INDEX 01 00:00:00
FILE "02. Small Mistakes in Nature, Part 2.wav" WAVE
TRACK 02 AUDIO
TITLE "Small Mistakes in Nature, Part 2"
PERFORMER "Graham Lambkin / Taku Unami"
INDEX 01 00:00:00
FILE "03. Small Mistakes in Nature, Part 3.wav" WAVE
TRACK 03 AUDIO
TITLE "Small Mistakes in Nature, Part 3"
PERFORMER "Graham Lambkin / Taku Unami"
INDEX 01 00:00:00
FILE "04. Small Mistakes in Nature, Part 4.wav" WAVE
TRACK 04 AUDIO
TITLE "Small Mistakes in Nature, Part 4"
PERFORMER "Graham Lambkin / Taku Unami"
INDEX 01 00:00:00
FILE "05. Small Mistakes in Nature, Part 5.wav" WAVE
TRACK 05 AUDIO
TITLE "Small Mistakes in Nature, Part 5"
PERFORMER "Graham Lambkin / Taku Unami"
INDEX 01 00:00:00
[cybertorrent.ru].t50492.torrent 
Торрент: Зарегистрирован [ 2018-04-19 06:40 ] · 19329FE3AEAACB70294BD2B368F727C707C09FA1

Скачать .torrent

Скачать

18 KB

Статус: проверено
Скачан: 0 раз
Размер: 426 MB
Профиль [ЛС]
Показать сообщения:    

Текущее время: 21-Май 22:48

Часовой пояс: UTC ± 0



Вы не можете начинать темы
Вы не можете отвечать на сообщения
Вы не можете редактировать свои сообщения
Вы не можете удалять свои сообщения
Вы не можете голосовать в опросах
Вы не можете прикреплять файлы к сообщениям
Вы можете скачивать файлы