Статистика раздачи
Размер:  1,46 GB   |    Зарегистрирован:  3 месяца 12 дней   |    Скачан:  0 раз

Полного источника не было: Никогда

 
   
 
 

lopster ®

Пол:
Не указан
Стаж:
3 месяца 12 дней
Сообщений:
612

Милый Ханс, дорогой Петр
Жанр: Драма
Год выпуска: 2015
Продолжительность: 01:59:12
Режиссёр: Александр Миндадзе
В ролях: Якоб Диль, Биргит Минихмайр, Марк Вашке, Марк Хоземанн, Роза Хаируллина, Андрюс Даряла, Евгений Сармонт, Ангелина Римашевская, Анна Скиданова, Светлана Косолапова
Описание: Накануне войны немецкие инженеры работают на советском заводе над производством высокоточной оптики. Судьба и благополучие каждого из них зависит от успеха дела, но пока результата нет — ошибки следуют одна за другой. На фоне производственных неудач и приближения трагической эпохи раскрываются личные проблемы героев и их непростые взаимоотношения. Во время ответственной варки у инженера Ханса случается нервный срыв, приведший к тяжелым последствиям: взрыву, смертям и расследованию советских спецслужб. Свидетелем его проступка становится русский рабочий Пётр. Ханс и Пётр, случайно ставший причастным к преступлению, оказываются в зависимости друг от друга, повязанные страхом разоблачения. Однако взаимное недоверие парадоксальным образом оборачивается духовной близостью. Когда Петр с женой и детьми тайно бежит из города, гонимый страхом расстрела, немецкий инженер вместо облегчения испытывает чувство утраты. Вскоре Ханс возвращается в те же места, но уже в офицерской форме, смотрит в бинокль сквозь созданные им же линзы, обозревая окрестности: а была ли недавняя мирная жизнь?
Сэмпл: https://yadi.sk/i/TD-vqhBf3S46rg
Качество видео: WEB-DLRip
Формат видео: AVI
Видео: MPEG-4 Visual; 720х304; 2,35:1; 25,000 кадров/сек; 1363 Кбит/сек
Аудио: русский; AC-3; 48,0 КГц; 384 Кбит/сек; 6 каналов, Front: L C R, Side: L R, LFE

MediaInfo

Общее
Полное имя : MiliyHans2015.WEB-DLRip.1.46Gb.avi
Формат : AVI
Формат/Информация : Audio Video Interleave
Размер файла : 1,46 Гбайт
Продолжительность : 1 ч. 59 м.
Общий поток : 1755 Кбит/сек
Видео
Идентификатор : 0
Формат : MPEG-4 Visual
Профиль формата : Advanced Simple@L5
Настройки формата : BVOP1 / Custom Matrix
Параметр BVOP формата : 1
Параметр QPel формата : Нет
Параметр GMC формата : Без точки перехода
Параметр матрицы формата : Выборочная
Идентификатор кодека : XVID
Идентификатор кодека/Подсказка : XviD
Продолжительность : 1 ч. 59 м.
Битрейт : 1363 Кбит/сек
Ширина : 720 пикселей
Высота : 304 пикселя
Соотношение сторон : 2,35:1
Частота кадров : 25,000 кадров/сек
Цветовое пространство : YUV
Субдискретизация насыщенности : 4:2:0
Битовая глубина : 8 бит
Тип развёртки : Прогрессивная
Метод сжатия : С потерями
Бит/(Пиксели*Кадры) : 0.249
Размер потока : 1,13 Гбайт (78%)
Библиотека кодирования : XviD 73
Аудио
Идентификатор : 1
Формат : AC-3
Формат/Информация : Audio Coding 3
Идентификатор кодека : 2000
Продолжительность : 1 ч. 59 м.
Вид битрейта : Постоянный
Битрейт : 384 Кбит/сек
Каналы : 6 каналов
Расположение каналов : Front: L C R, Side: L R, LFE
Частота : 48,0 КГц
Частота кадров : 31,250 кадров/сек (1536 SPF)
Битовая глубина : 16 бит
Метод сжатия : С потерями
Размер потока : 327 Мбайт (22%)
Выравнивание : Соединение по промежуткам
Продолжительность промежутка : 64 мс. (1,60 видеокадра)
Время предзагрузки промежутка : 192 мс.
Заголовок : iTunes
ServiceKind/String : Complete Main

Скриншот c названием фильма

Скриншоты



[cybertorrent.ru].t505.torrent 
Торрент: Зарегистрирован [ 2018-02-15 15:48 ] · 477A0D1E7B034B11F9AF0D06A0C16E2123EE9F4C

Скачать .torrent

Скачать

15 KB

Статус: проверено
Скачан: 0 раз
Размер: 1,46 GB
Профиль [ЛС]
Показать сообщения:    

Текущее время: 28-Май 03:26

Часовой пояс: UTC ± 0



Вы не можете начинать темы
Вы не можете отвечать на сообщения
Вы не можете редактировать свои сообщения
Вы не можете удалять свои сообщения
Вы не можете голосовать в опросах
Вы не можете прикреплять файлы к сообщениям
Вы можете скачивать файлы