Статистика раздачи
Размер:  3,86 GB   |    Зарегистрирован:  1 месяц 2 дня   |    Скачан:  0 раз

Полного источника не было: Никогда

 
   
 
 

Tolik88 ®

Пол:
Не указан
Стаж:
3 месяца 6 дней
Сообщений:
336

Массажисты и женщина / Anma to onna / The Masseurs and a Woman / Criterion.Eclipse Series #15
Страна:ЯпонияСтудия:Shochiku Films Ltd.Жанр:ДрамаГод выпуска:1938
Продолжительность:01:06:24Производство:Criterion.Eclipse Series #15Перевод:Одноголосый (закадровый)Субтитры:Английские, Русские nеkо64
Премьера (мир):7.07.1938Оригинальная аудиодорожка:ЯпонскийРежиссер:Хироси Симидзу / Hiroshi ShimizuВ ролях:Сётаро Акаги, Синити Химори, Аюко Хирано, Тору Хиросе, Дзэнтаро Иидзима, Акио Исоно, Хидеко Касуга, Тосиаки Коноэ, Chieko Kyotani, Фусако МакиОписание:Конец тридцатых годов, полуостров Идзу. Курорт на горячих источниках у горы Фудзи. Токуити и Фукуити, два слепых массажиста, зарабатывают на жизнь, переходя от гостиницы к гостинице. Лишенные зрения, они научились угадывать многое, что скрыто от глаз обычных людей.
Доп. информация:Исходник найден в сети.Звук и субтитрывзяты из раздачи vedigo-http://cybertorrent.ru/viewtopic.php?t=4814518Огромное СпасибоВсем, без чьей помощи этот релиз не состоялся бы!Сценарий:Хироси СимидзуОператор:Хироси СимидзуКомпозитор:Сэндзи ИтоХудожник:Минору Эсака, Tetsuzô Shibata, Shintarô Mishima

Софт

PgcDemux 1.2.0.5 -> разделение компонентов диска на файлы.
BeHappy, BeLight - AC3 -> Wav.Sound Forge pro 10 -> синхронизация звукаSubtitle Workshop, MaestroSBT, SubtitleCreator, DVD SubEdit (субтитры).
MuxMan DVD authoring Professional -> мультиплексирование и авторинг.
DVDRemake Pro 3.6.4 -> реавторинг DVD.
DVD Shrink 3.2 -> Сэмпл.--
Меню:Английский, статичное, неозвученное. Тип релиза:DVD5 (Custom)
Контейнер:DVD-Video
Видео:NTSC 4:3 (720x480) VBR, 7713 Кбит/сек, 23,976 (24000/1001) кадра/секАудио 1:Русский:AC3, 2 ch, 48.0 KHz, 192 Кбит/сек / Одноголосый (закадровый)Аудио 2:Японский:AC3, 1 ch, 48.0 KHz, 192 Кбит/сек / ОригиналФормат субтитров:prerendered (DVD/IDX+SUB)

Dvd Info

Title: The Masseurs and a Woman DVD-5_Custom_Criterion.Eclipse Series #15
Size: 3.86 Gb ( 4 051 062,00 KBytes ) - DVD-5
Enabled regions: 1, 2, 3, 4, 5, 6, 7, 8
VTS_01 :
Play Length: 00:00:00
Video: NTSC 4:3 (720x480) VBR
VTS_02 :
Play Length: 01:06:24
Video: NTSC 4:3 (720x480) VBR
Audio:
Russian (Dolby AC3, 2 ch)
Japanese (Dolby AC3, 1 ch)
Subtitles:
English
Russian
VTS_03 :
Play Length: 00:00:20
Video: NTSC 4:3 (720x480) VBR
VTS_04 :
Play Length: 00:00:00
Video: NTSC 4:3 (720x480) VBR

Mediainfo

Общее
Полное имя : F:\The Masseurs and a Woman DVD-5_Custom_Criterion.Eclipse Series #15\VIDEO_TS\VTS_02_3.VOB
Формат : MPEG-PS
Размер файла : 1024 Мбайт
Продолжительность : 17 м. 19 с.
Режим общего битрейта : Переменный
Общий поток : 8261 Кбит/сек
Видео
Идентификатор : 224 (0xE0)
Формат : MPEG Video
Версия формата : Version 2
Профиль формата : Main@Main
Параметр BVOP формата : Да
Параметр матрицы формата : Выборочная
Параметр GOP формата : M=3, N=12
Продолжительность : 17 м. 19 с.
Вид битрейта : Переменный
Битрейт : 7713 Кбит/сек
Максимальный битрейт : 9406 Кбит/сек
Ширина : 720 пикселей
Высота : 480 пикселей
Соотношение сторон : 4:3
Частота кадров : 23,976 (24000/1001) кадра/сек
Цветовое пространство : YUV
Субдискретизация насыщенности : 4:2:0
Битовая глубина : 8 бит
Тип развёртки : Прогрессивная
Порядок развёртки : 2:3 Pulldown
Метод сжатия : С потерями
Бит/(Пиксели*Кадры) : 0.931
Временной код первого кадра : 01:33:46:08
Оригинал временного кода : Group of pictures header
GOP, открыто/закрыто : Открыто
Размер потока : 956 Мбайт (93%)
Аудио #1
Идентификатор : 189 (0xBD)-128 (0x80)
Формат : AC-3
Формат/Информация : Audio Coding 3
Расширение режима : CM (complete main)
Параметр Endianness формата : Big
Режим смешивания : DVD-Video
Продолжительность : 17 м. 19 с.
Вид битрейта : Постоянный
Битрейт : 192 Кбит/сек
Каналы : 2 канала
Расположение каналов : Front: L R
Частота : 48,0 КГц
Частота кадров : 31,250 кадров/сек (1536 spf)
Метод сжатия : С потерями
Задержка видео : -370 мс.
Размер потока : 23,8 Мбайт (2%)
Аудио #2
Идентификатор : 189 (0xBD)-129 (0x81)
Формат : AC-3
Формат/Информация : Audio Coding 3
Расширение режима : CM (complete main)
Параметр Endianness формата : Big
Режим смешивания : DVD-Video
Продолжительность : 17 м. 19 с.
Вид битрейта : Постоянный
Битрейт : 192 Кбит/сек
Каналы : 1 канал
Расположение каналов : Front: C
Частота : 48,0 КГц
Частота кадров : 31,250 кадров/сек (1536 spf)
Метод сжатия : С потерями
Задержка видео : -370 мс.
Размер потока : 23,8 Мбайт (2%)
Текст #1
Идентификатор : 189 (0xBD)-32 (0x20)
Формат : RLE
Формат/Информация : Run-length encoding
Режим смешивания : DVD-Video
Задержка видео : 2 с. 636 мс.
Текст #2
Идентификатор : 189 (0xBD)-33 (0x21)
Формат : RLE
Формат/Информация : Run-length encoding
Режим смешивания : DVD-Video
Задержка видео : 1 с. 402 мс.

Скриншоты меню

Скриншоты фильма Полиграфия Релиз: Уважаемые пользователи!Найдите пару минут поблагодарить релизера и высказаться в топике раздачи.Ваше мнение - бальзам для раздающего и пища для ума остальным пользователям.Мои раздачи
[cybertorrent.ru].t50505.torrent 
Торрент: Зарегистрирован [ 2018-04-19 06:40 ] · 8EDC448345DD31ABCE2190F6A68E0F3F8D38A118

Скачать .torrent

Скачать

21 KB

Статус: проверено
Скачан: 0 раз
Размер: 3,86 GB
Профиль [ЛС]
Показать сообщения:    

Текущее время: 21-Май 22:49

Часовой пояс: UTC ± 0



Вы не можете начинать темы
Вы не можете отвечать на сообщения
Вы не можете редактировать свои сообщения
Вы не можете удалять свои сообщения
Вы не можете голосовать в опросах
Вы не можете прикреплять файлы к сообщениям
Вы можете скачивать файлы