Статистика раздачи
Размер:  6,96 GB   |    Зарегистрирован:  2 месяца 26 дней   |    Скачан:  0 раз

Полного источника не было: Никогда

 
   
 
 

firebird ®

Пол:
Не указан
Стаж:
5 месяцев
Сообщений:
301

Покемон: Солнце и Луна / Pokemon the Series: Sun & Moon- Страна: Япония / США
Год выпуска: 2017 г.
Жанр: приключения, комедия, фэнтези
Тип: TV-сериал
Серии: XX эпизодов по 22 минуте
Автор оригинала: Тадзири Сатоси
Режиссер оригинала: Юяма Кунихико
Студия: OLM-Релиз подготовлен группой Free Releasers Team "SORA"
  • Производство: SDI Media Russia
  • Захват звука: Vinozavr, TRAY_MAX (телеканал "2х2")
  • Сведение звука: Ampho_dub
  • Роли озвучивали: Иван Калинин, Андрей Бархударов, Прохор Чеховской, Василиса Воронина, Даниил Эльдаров, Алёна Созинова, Мария Иващенко, Лариса Некипелова, Пётр Иващенко, Дария Фролова, Дмитрий Филимонов, Ольга Зубкова, Сергей Смирнов, Лина Иванова, Татьяна Шитова, Александр Дасевич, Андрей Гриневич, Илья Хвостиков-Описание: Летние каникулы Эша Кетчума в тропическом регионе Алола неожиданно оборачиваются захватывающими приключениями, во время которых Эш продолжает своё стремление стать Мастером Покемонов! Эшу и Пикачу есть чем заняться в этом солнечном новом регионе – ведь здесь обитает множество изумительных Покемонов! В Алоле также много интересных людей, таких как Профессор Кекеи и Самсон Оук – директор Школы Тренеров Покемонов, у которых можно многому научиться. Новые одноклассники Эша очень помогают во время его нового путешествия по региону Алола. Их зовут Киаве, Лана, Маллоу, Софоклис и Лилли, которая знает много всего о Покемонах, но, похоже, боится до них дотронуться. Частые враги в лице Команды Ракета также добрались до региона Алола в надежде украсть новых сильных Покемонов. Но на вражеском фронте у них обнаруживаются соперники – хулиганы местной Команды Череп!-Качество: WEBRip | Формат: AVI | Энкод: Ampho_dub
    Тип релиза: Без хардсаба | Совместимость с бытовыми плеерами: Да
    Видео: XviD (8 bit) 720х406, ~1 300 kbps, 23.976 fps
    в составе контейнера:
    Аудио: AC3, 192 kbps, 48.0 kHz, 2 ch [Russian] Озвучка 1: [DUB] - Многоголосый, Дублированный [SDI Media]

    Список эпизодов

    01. Новое приключение в регионе Алола!
    02. Испытание хранителя!
    03. Декс загружается!
    04. Первая поимка в Алоле в стиле Кетчума!
    05. Йо-хо-хо! Так держать, Попплио!
    06. Шокирующая пробежка по магазинам!
    07. Не такой уж и плохой Литтен!
    08. Покеяичное испытание для Лилли!
    09. Одолеть Тотема!
    10. Испытания и невзгоды!
    11. Ферма юного Киаве!
    12. Солнце, страх и секретная берлога!
    13. Вперед на блинные гонки!
    14. Давай познакомимся!
    15. Встряска в Кломарк-Хилле!
    16. Маленькие, да удаленькие!
    17. Кристально чистое расследование!
    18. Нектарные поиски!
    19. Реванш Хранителя!
    20. Обещание напарника!
    21. Конец одного путешествия - это начало другого!
    22. В поисках страшной лопаты!
    23. Группа снова вместе!
    24. В Алоле - День открытых дверей!
    25. Битва команда на команду!
    26. До встречи, Софоклис!
    27. Свирепое соперничество!
    28. Тренировка на Поке-Базе!
    29. Усыплённые в сонном царстве!
    30. Покемон по обмену!
    31. Заклинательница покемонов

    Подробные тех. данные

    General
    Complete name : [FRT Sora] Pokemon Sun & Moon [HWP]\[FRT Sora] Pokemon S20 E01 [HWP].avi
    Format : AVI
    Format/Info : Audio Video Interleave
    File size : 239 MiB
    Duration : 22 min 16 s
    Overall bit rate : 1 502 kb/s
    Movie name : PokГ©mon S20E01 - Alola to New Adventure!
    Writing application : Lavf57.71.100
    Video
    ID : 0
    Format : MPEG-4 Visual
    Format profile : Advanced Simple@L5
    Format settings, BVOP : 2
    Format settings, QPel : No
    Format settings, GMC : No warppoints
    Format settings, Matrix : Default (H.263)
    Codec ID : XVID
    Codec ID/Hint : XviD
    Duration : 22 min 16 s
    Bit rate : 1 299 kb/s
    Width : 720 pixels
    Height : 406 pixels
    Display aspect ratio : 16:9
    Frame rate : 23.976 (24000/1001) FPS
    Color space : YUV
    Chroma subsampling : 4:2:0
    Bit depth : 8 bits
    Scan type : Progressive
    Compression mode : Lossy
    Bits/(Pixel*Frame) : 0.185
    Stream size : 207 MiB (86%)
    Title : English NTSC WEBRip 1080p x264
    Writing library : XviD 67
    Audio
    ID : 1
    Format : AC-3
    Format/Info : Audio Coding 3
    Format settings, Endianness : Big
    Codec ID : 2000
    Duration : 22 min 16 s
    Bit rate mode : Constant
    Bit rate : 192 kb/s
    Channel(s) : 2 channels
    Channel positions : Front: L R
    Sampling rate : 48.0 kHz
    Frame rate : 31.250 FPS (1536 SPF)
    Bit depth : 16 bits
    Compression mode : Lossy
    Stream size : 30.6 MiB (13%)
    Alignment : Aligned on interleaves
    Interleave, duration : 32 ms (0.77 video frame)
    Title : Alias Data Handler
    Service kind : Complete Main

    Скриншоты

    Отличия

    WEBRip 1080p - Совместимость с бытовыми плеерами
    [cybertorrent.ru].t50509.torrent 
    Торрент: Зарегистрирован [ 2018-04-19 06:40 ] · F2B2FDE36FFA65AA633B4987171E397618F82702

    Скачать .torrent

    Скачать

    37 KB

    Статус: проверено
    Скачан: 0 раз
    Размер: 6,96 GB
  • Профиль [ЛС]
    Показать сообщения:    

    Текущее время: 16-Июл 04:43

    Часовой пояс: UTC ± 0



    Вы не можете начинать темы
    Вы не можете отвечать на сообщения
    Вы не можете редактировать свои сообщения
    Вы не можете удалять свои сообщения
    Вы не можете голосовать в опросах
    Вы не можете прикреплять файлы к сообщениям
    Вы можете скачивать файлы