Статистика раздачи
Размер:  1,45 GB   |    Зарегистрирован:  1 месяц 2 дня   |    Скачан:  0 раз

Полного источника не было: Никогда

 
   
 
 

kex ®

Пол:
Не указан
Стаж:
3 месяца 6 дней
Сообщений:
324

Путешествие времениVoyage of Time: Life's Journey- Год выпуска: 2016
Страна: США, Франция, Германия
Жанр: документальный, фэнтези-Продолжительность: 01:28:41
Перевод: Профессиональный (полное дублирование) Кинопремьера HD
Субтитры: нет-Режиссёр: Терренс Малик / Terrence Malick-Описание: Невероятное путешествие в прошлое нашей планеты. Фильм, пропитанный энергией самой природы, сочетает в себе новаторские спецэффекты и удивительные кадры, снятые в разных уголках земного шара в попытках зафиксировать то, что живет веками и неподвластно времени. История рождения Земли. Движения звезд и континентов. Древние вулканы. Рождение рыб, лесов, динозавров и человека с его страстным желанием дотянуться до всего. Это подлинный гимн природе, жизни и Вселенной!hr]
КиноПоиск | IMDb | Sample-Качество: WEB-DLRip-AVC (Источник: WEB-DL 1080p)
Формат: MKV
Видео: x264, 738x414 (16:9), 24.000 fps, ~1900 kbps avg, 0.260 bit/pixel
Аудио: Russian 48.0 KHz, AС3, 3/2 (L,C,R,l,r) + LFE ch, ~448.00 kbps avg |Кинопремьера HD|-

Релиз


Рип - whip93.
Работа со звуком - flaSI-I.

Сравнения с исходником

Source vs. Encode

MediaInfo | x264 log

x264 log

---[Information] [22.08.2017 10:46:39] raw [info]: 736x414p 1:1 @ 24/1 fps (cfr)
---[Information] [22.08.2017 10:46:39] x264 [info]: using SAR=1/1
---[Information] [22.08.2017 10:46:39] x264 [info]: using cpu capabilities: MMX2 SSE2Fast SSSE3 SSE4.2 AVX
---[Information] [22.08.2017 10:46:39] x264 [info]: profile High, level 4.1
---[Information] [22.08.2017 14:01:16] x264 [info]: frame I:668 Avg QP:13.85 size: 50530
---[Information] [22.08.2017 14:01:16] x264 [info]: frame P:30354 Avg QP:17.58 size: 18986
---[Information] [22.08.2017 14:01:16] x264 [info]: frame B:96683 Avg QP:19.27 size: 6746
---[Information] [22.08.2017 14:01:16] x264 [info]: consecutive B-frames: 1.6% 2.5% 4.7% 59.8% 9.7% 13.2% 1.6% 1.3% 0.5% 0.3% 0.3% 0.3% 0.4% 4.0%
---[Information] [22.08.2017 14:01:16] x264 [info]: mb I I16..4: 18.8% 53.6% 27.6%
---[Information] [22.08.2017 14:01:16] x264 [info]: mb P I16..4: 0.8% 10.3% 1.9% P16..4: 25.8% 28.2% 12.9% 3.6% 0.8% skip:15.6%
---[Information] [22.08.2017 14:01:16] x264 [info]: mb B I16..4: 0.1% 2.3% 0.4% B16..8: 25.3% 15.9% 3.2% direct: 6.5% skip:46.3% L0:35.5% L1:42.1% BI:22.4%
---[Information] [22.08.2017 14:01:16] x264 [info]: 8x8 transform intra:77.7% inter:50.6%
---[Information] [22.08.2017 14:01:16] x264 [info]: coded y,uvDC,uvAC intra: 89.3% 89.5% 78.8% inter: 23.1% 19.7% 9.3%
---[Information] [22.08.2017 14:01:16] x264 [info]: i16 v,h,dc,p: 36% 8% 8% 48%
---[Information] [22.08.2017 14:01:16] x264 [info]: i8 v,h,dc,ddl,ddr,vr,hd,vl,hu: 7% 10% 7% 9% 13% 11% 14% 12% 18%
---[Information] [22.08.2017 14:01:16] x264 [info]: i4 v,h,dc,ddl,ddr,vr,hd,vl,hu: 9% 9% 7% 8% 15% 12% 14% 10% 16%
---[Information] [22.08.2017 14:01:16] x264 [info]: i8c dc,h,v,p: 49% 23% 14% 14%
---[Information] [22.08.2017 14:01:16] x264 [info]: Weighted P-Frames: Y:8.9% UV:2.3%
---[Information] [22.08.2017 14:01:16] x264 [info]: ref P L0: 48.8% 12.8% 15.5% 5.9% 4.6% 3.3% 2.6% 1.5% 1.8% 1.2% 1.0% 1.0% 0.1% 0.0%
---[Information] [22.08.2017 14:01:16] x264 [info]: ref B L0: 80.1% 8.6% 3.8% 1.7% 2.1% 1.0% 0.8% 0.5% 0.8% 0.5% 0.2%
---[Information] [22.08.2017 14:01:16] x264 [info]: ref B L1: 95.2% 4.8%
---[Information] [22.08.2017 14:01:16] x264 [info]: kb/s:1897.80
---[Information] [22.08.2017 14:01:16] encoded 127705 frames, 10.94 fps, 1897.80 kb/s
General
Unique ID : 173002021046347533994957183044206092149 (0x8226FA2ED7CD89FAB8B05496E7565F75)
Complete name : F:\Voyage.of.Time.2016.WEB-DLRip.DD5.1.x264.-whip93.mkv
Format : Matroska
Format version : Version 4 / Version 2
File size : 1.45 GiB
Duration : 1h 28mn
Overall bit rate : 2 347 Kbps
Movie name : Путешествие времени | Voyage of Time (2016) - Release by whip93
Encoded date : UTC 2017-08-22 10:13:54
Writing application : mkvmerge v6.1.0 ('Old Devil') built on Mar 4 2013 09:10:42
Writing library : libebml v1.3.0 + libmatroska v1.4.0
Video
ID : 1
Format : AVC
Format/Info : Advanced Video Codec
Format profile : High@L4.1
Format settings, CABAC : Yes
Format settings, ReFrames : 12 frames
Codec ID : V_MPEG4/ISO/AVC
Duration : 1h 28mn
Bit rate : 1 900 Kbps
Width : 736 pixels
Height : 414 pixels
Display aspect ratio : 16:9
Frame rate mode : Constant
Frame rate : 24.000 fps
Color space : YUV
Chroma subsampling : 4:2:0
Bit depth : 8 bits
Scan type : Progressive
Bits/(Pixel*Frame) : 0.260
Stream size : 1.15 GiB (79%)
Title : Encoded by whip93
Writing library : x264 core 148 r2638 7599210
Encoding settings : cabac=1 / ref=12 / deblock=1:-3:-3 / analyse=0x3:0x133 / me=umh / subme=11 / psy=1 / psy_rd=1.00:0.08 / mixed_ref=1 / me_range=64 / chroma_me=1 / trellis=2 / 8x8dct=1 / cqm=0 / deadzone=21,11 / fast_pskip=0 / chroma_qp_offset=-6 / threads=12 / lookahead_threads=3 / sliced_threads=0 / nr=0 / decimate=1 / interlaced=0 / bluray_compat=0 / constrained_intra=0 / bframes=13 / b_pyramid=2 / b_adapt=2 / b_bias=0 / direct=1 / weightb=1 / open_gop=0 / weightp=2 / keyint=240 / keyint_min=24 / scenecut=40 / intra_refresh=0 / rc_lookahead=60 / rc=2pass / mbtree=1 / bitrate=1900 / ratetol=1.0 / qcomp=0.72 / qpmin=0 / qpmax=69 / qpstep=4 / cplxblur=20.0 / qblur=0.5 / vbv_maxrate=50000 / vbv_bufsize=62500 / nal_hrd=none / filler=0 / ip_ratio=1.40 / aq=1:0.80
Language : English
Default : Yes
Forced : No
Color range : Limited
Color primaries : BT.709
Transfer characteristics : BT.709
Matrix coefficients : BT.709
Audio
ID : 2
Format : AC-3
Format/Info : Audio Coding 3
Mode extension : CM (complete main)
Format settings, Endianness : Big
Codec ID : A_AC3
Duration : 1h 28mn
Bit rate mode : Constant
Bit rate : 448 Kbps
Channel(s) : 6 channels
Channel positions : Front: L C R, Side: L R, LFE
Sampling rate : 48.0 KHz
Compression mode : Lossy
Stream size : 284 MiB (19%)
Title : Dub (Кинопремьера HD)
Language : Russian
Default : Yes
Forced : No
Menu
00:00:00.000 : en:1
00:06:28.250 : en:2
00:11:53.708 : en:3
00:16:44.291 : en:4
00:22:24.291 : en:5
00:29:42.832 : en:6
00:35:17.040 : en:7
00:42:21.165 : en:8
00:48:30.040 : en:9
00:55:02.040 : en:10
00:59:43.748 : en:11
01:06:16.039 : en:12
01:12:52.414 : en:13
01:16:37.205 : en:14

Скриншоты

-
[cybertorrent.ru].t50516.torrent 
Торрент: Зарегистрирован [ 2018-04-19 06:40 ] · C3B086F639C84C88CABAB0680CCC37EF7780A42C

Скачать .torrent

Скачать

59 KB

Статус: проверено
Скачан: 0 раз
Размер: 1,45 GB
Профиль [ЛС]
Показать сообщения:    

Текущее время: 21-Май 22:38

Часовой пояс: UTC ± 0



Вы не можете начинать темы
Вы не можете отвечать на сообщения
Вы не можете редактировать свои сообщения
Вы не можете удалять свои сообщения
Вы не можете голосовать в опросах
Вы не можете прикреплять файлы к сообщениям
Вы можете скачивать файлы