Статистика раздачи
Размер:  1,46 GB   |    Зарегистрирован:  6 месяцев 29 дней   |    Скачан:  0 раз

Полного источника не было: Никогда

   
 

serzh ®

Пол:
Не указан
Стаж:
7 месяцев 4 дня
Сообщений:
384

Гепард / Cheetah
Страна: США
Жанр: приключения, семейный
Год выпуска: 1989
Продолжительность: 01:23:34
Перевод: Профессиональный (многоголосый закадровый) 1 канал
Субтитры: нет
Оригинальная аудиодорожка: английский
Режиссер: Джефф Блит / Jeff Blyth
В ролях: Кит Куган, Люси Дикинс, Коллин Мотупи, Тимоти Лэндфилд, Бреон Гормэн, Пол Онсонго, Энтони Бейрд

Описание: Семья американских ученых отправляется на полгода в Кению. Пока родители занимаются своими исследованиями, дети берут на воспитание детеныша гепарда. Гепард растёт, и брат с сестрой осознают: приёмыша надо выпустить на природу, чтобы он научился охотиться и быть свободным.
Однако гепарду не удаётся обрести свободу — он попадает в ловушку к браконьерам, которые собираются выставить его на бегах против гончих псов. Узнав об этой беде, дети и их новый друг, молодой пастух-африканец, отправляются на спасение гепарда.

Кинопоиск - IMDb
Sample
Качество видео: WEB-DLRip
Формат видео: AVI
Видео: 720x400 (1.80:1), 23.976 fps, XviD build 73 ~2109 kbps avg, 0.30 bit/pixel
Аудио #1: Russian (AC3, 2 ch, 192 kbps, 16 bits, 48.0 KHz) - MVO
Аудио #2: English (AC3, 2 ch, 192 kbps, 16 bits, 48.0 KHz) - оригинал

MediaInfo

General
Complete name : J:\Cheetah 1989 WEB-DLRip.avi
Format : AVI
Format/Info : Audio Video Interleave
File size : 1.46 GiB
Duration : 1 h 23 min
Overall bit rate : 2 509 kb/s
Writing application : VirtualDubMod 1.5.10.3 | www.virtualdub-fr.org || (build 2550/release)
Writing library : VirtualDubMod build 2550/release
Video
ID : 0
Format : MPEG-4 Visual
Format profile : Advanced Simple@L5
Format settings : BVOP1
Format settings, BVOP : 1
Format settings, QPel : No
Format settings, GMC : No warppoints
Format settings, Matrix : Default (MPEG)
Codec ID : XVID
Codec ID/Hint : XviD
Duration : 1 h 23 min
Bit rate : 2 110 kb/s
Width : 720 pixels
Height : 400 pixels
Display aspect ratio : 16:9
Frame rate : 23.976 (24000/1001) FPS
Color space : YUV
Chroma subsampling : 4:2:0
Bit depth : 8 bits
Scan type : Progressive
Compression mode : Lossy
Bits/(Pixel*Frame) : 0.306
Stream size : 1.23 GiB (84%)
Writing library : XviD 73
Audio #1
ID : 1
Format : AC-3
Format/Info : Audio Coding 3
Codec ID : 2000
Duration : 1 h 23 min
Bit rate mode : Constant
Bit rate : 192 kb/s
Channel(s) : 2 channels
Channel positions : Front: L R
Sampling rate : 48.0 kHz
Frame rate : 31.250 FPS (1536 SPF)
Bit depth : 16 bits
Compression mode : Lossy
Stream size : 115 MiB (8%)
Alignment : Split accross interleaves
Interleave, duration : 42 ms (1.00 video frame)
Interleave, preload duratio : 500 ms
Service kind : Complete Main
Audio #2
ID : 2
Format : AC-3
Format/Info : Audio Coding 3
Codec ID : 2000
Duration : 1 h 23 min
Bit rate mode : Constant
Bit rate : 192 kb/s
Channel(s) : 2 channels
Channel positions : Front: L R
Sampling rate : 48.0 kHz
Frame rate : 31.250 FPS (1536 SPF)
Bit depth : 16 bits
Compression mode : Lossy
Stream size : 115 MiB (8%)
Alignment : Split accross interleaves
Interleave, duration : 42 ms (1.00 video frame)
Interleave, preload duratio : 500 ms
Service kind : Complete Main

Скриншоты



[cybertorrent.ru].t506.torrent 
Торрент: Зарегистрирован [ 2019-03-18 13:08 ] · 912AEAFFE541422C6A38EDF966AEAA4AFF6B2436

Скачать .torrent

Скачать

15 KB

Статус: проверено
Скачан: 0 раз
Размер: 1,46 GB
terms.php
Профиль ЛС
Показать сообщения:    

Текущее время: 17-Окт 01:33

Часовой пояс: UTC ± 0



Вы не можете начинать темы
Вы не можете отвечать на сообщения
Вы не можете редактировать свои сообщения
Вы не можете удалять свои сообщения
Вы не можете голосовать в опросах
Вы не можете прикреплять файлы к сообщениям
Вы можете скачивать файлы