Статистика раздачи
Размер:  1,37 GB   |    Зарегистрирован:  3 месяца 11 дней   |    Скачан:  0 раз

Полного источника не было: Никогда

 
   
 
 

lopster ®

Пол:
Не указан
Стаж:
3 месяца 11 дней
Сообщений:
612

Городские птички
Жанр: комедия, мелодрама
Год выпуска: 2016
Продолжительность: 01:24:07
Режиссёр: Юлия Белая
В ролях: Евгения Афонская, Евгения Громова, Анна Воркуева, Филипп Авдеев, Александр Горчилин, Харальд Розенстрём, Елена Махова, Артем Сучков, Роман Хан

Описание: В центре нашего внимания — романтические истории трех подруг. Маша — редактор в детском издательстве, полноватая, закомплексованная, из хорошей семьи, попадает в совершенно неожиданную для нее ситуацию — просыпается с похмелья в боксерском клубе. Настя продает модные вещи, деловая, самостоятельная, снимает квартиру со своим парнем Романом — начинающим татуировщиком. Настя случайно узнает, что Роман ей изменил, и решает ему отомстить. Рита — администратор в хостеле, месте встреч подруг, натура романтичная. Из-за боязни высоты мало путешествует, за это шутливо отыгрывается на посетителях-иностранцах: подпаивает их и обыгрывает в настольный хоккей. Но встреча с одним из гостей, Харольдом, заставляет Риту по-другому взглянуть на все вокруг. Каждая из героинь пытается найти и удержать любовь, но это не так-то просто!

Sample
Качество видео: WEB-DLRip
Формат видео: AVI
Видео: 720x400 (1.80:1), 25 fps, XviD build 73 ~2125 kbps avg, 0.29 bit/pixel
Аудио: 48 kHz, AC3 Dolby Digital, 2/0 (L,R) ch, ~192 kbps

MediaInfo

General
Complete name : D:\Gorodskie.ptichki.2016.avi
Format : AVI
Format/Info : Audio Video Interleave
File size : 1.37 GiB
Duration : 1h 24mn
Overall bit rate : 2 325 Kbps
Video
ID : 0
Format : MPEG-4 Visual
Format profile : Advanced Simple@L5
Format settings, BVOP : 1
Format settings, QPel : No
Format settings, GMC : No warppoints
Format settings, Matrix : Custom
Codec ID : XVID
Codec ID/Hint : XviD
Duration : 1h 24mn
Bit rate : 2 125 Kbps
Width : 720 pixels
Height : 400 pixels
Display aspect ratio : 16:9
Frame rate : 25.000 fps
Color space : YUV
Chroma subsampling : 4:2:0
Bit depth : 8 bits
Scan type : Progressive
Compression mode : Lossy
Bits/(Pixel*Frame) : 0.295
Stream size : 1.25 GiB (91%)
Writing library : XviD 73
Audio
ID : 1
Format : AC-3
Format/Info : Audio Coding 3
Mode extension : CM (complete main)
Format settings, Endianness : Big
Codec ID : 2000
Duration : 1h 24mn
Bit rate mode : Constant
Bit rate : 192 Kbps
Channel count : 2 channels
Channel positions : Front: L R
Sampling rate : 48.0 KHz
Bit depth : 16 bits
Compression mode : Lossy
Stream size : 116 MiB (8%)
Alignment : Aligned on interleaves
Interleave, duration : 64 ms (1.60 video frames)
Interleave, preload duration : 192 ms
Title : Rus

Скриншот c названием фильма

Скриншоты


[cybertorrent.ru].t507.torrent 
Торрент: Зарегистрирован [ 2018-02-15 15:48 ] · 7E3BA2F577F9F2C9AE4DA0F2067F02E482D5C344

Скачать .torrent

Скачать

14 KB

Статус: проверено
Скачан: 0 раз
Размер: 1,37 GB
Профиль [ЛС]
Показать сообщения:    

Текущее время: 27-Май 01:36

Часовой пояс: UTC ± 0



Вы не можете начинать темы
Вы не можете отвечать на сообщения
Вы не можете редактировать свои сообщения
Вы не можете удалять свои сообщения
Вы не можете голосовать в опросах
Вы не можете прикреплять файлы к сообщениям
Вы можете скачивать файлы