Статистика раздачи
Размер:  3,4 GB   |    Зарегистрирован:  7 месяцев 23 дня   |    Скачан:  0 раз

Полного источника не было: Никогда

 
   
 
 

Cyber ®

Пол:
Не указан
Стаж:
9 месяцев 27 дней
Сообщений:
291

Симпсоны / The Simpsons
Страна: США
Жанр: мультсериал
Продолжительность серии: 00:22:00
Год выпуска: 2016
Перевод: Профессиональный (многоголосый закадровый) (2x2)
Русские субтитры: нет
Режиссёр: Мэтт Гроунинг / Matt Groening
Роли озвучивали: Дэн Кастелланета, Джули Кавнер, Нэнси Картрайт, Ярдли Смит, Гарри Ширер, Хэнк Азария, Памела Хейден, Тресс МакНилл, Карл Видерготт, Мэгги Росвэлл
Описание: Симпсоны живут в вымышленном городе Спрингфилд, со своим обществом и историей. Гомер - отец семейства, который дает плохие советы и работает инспектором безопасности на атомной электростанции; Мардж - любящая мать и жена, старается сохранить спокойствие в семье; Барт - 10 летний хулиган; Лиза - философский 8-летний ребенок; и Мэгги - младенец, который общается посредством соски
Список серий:
01. Пролетевший цирк Монти Бернса (Monty Burns' Fleeing Circus)
02. Друзья и семья (Friends and Family)
03. Город (The Town)
05. Доверяй, но проверяй (Trust but Clarify)
06. Давай будем друзьями (There Will Be Buds)
07. Дикие выходные в Гаване (Havana Wild Weekend)
08. Поведение отца (Dad Behavior)
09. Последний киногерой (The Last Traction Hero)
10. Кошмар после Крастждества (The Nightmare After Krustmas)
11. Свинина и Бернс (Pork and Burns)
12-13. Великий Фатсби (The Great Phatsby)
Семпл: http://multi-up.com/1154904
Подобные и альтернативные раздачи
Качество: WEB-DLRip
Формат: AVI
Видео: XviD, 1300 Кбит/с, 720х400, 23.976 fps
Аудио 1: Русский AC3, 48 kHz, 2.0 ch, ~192.00 kbps
Аудио 2: Английский AC3, 48 kHz, 6.0 ch, ~384.00 kbps
Субтитры: нет

Подробные технические данные

Format : AVI
Format/Info : Audio Video Interleave
File size : 291 MiB
Duration : 21mn 30s
Overall bit rate : 1 893 Kbps
Writing application : Lavf57.41.100
Video
ID : 0
Format : MPEG-4 Visual
Format profile : Advanced Simple@L5
Format settings, BVOP : 3
Format settings, QPel : No
Format settings, GMC : No warppoints
Format settings, Matrix : Default (H.263)
Codec ID : XVID
Codec ID/Hint : XviD
Duration : 21mn 30s
Bit rate : 1 300 Kbps
Width : 720 pixels
Height : 400 pixels
Display aspect ratio : 16:9
Frame rate : 23.976 fps
Color space : YUV
Chroma subsampling : 4:2:0
Bit depth : 8 bits
Scan type : Progressive
Compression mode : Lossy
Bits/(Pixel*Frame) : 0.188
Stream size : 200 MiB (69%)
Writing library : XviD 67
Audio #1
ID : 1
Format : AC-3
Format/Info : Audio Coding 3
Mode extension : CM (complete main)
Format settings, Endianness : Big
Codec ID : 2000
Duration : 21mn 30s
Bit rate mode : Constant
Bit rate : 192 Kbps
Channel(s) : 2 channels
Channel positions : Front: L R
Sampling rate : 48.0 KHz
Bit depth : 16 bits
Compression mode : Lossy
Stream size : 29.5 MiB (10%)
Alignment : Aligned on interleaves
Interleave, duration : 32 ms (0.77 video frame)
Audio #2
ID : 2
Format : AC-3
Format/Info : Audio Coding 3
Mode extension : CM (complete main)
Format settings, Endianness : Big
Codec ID : 2000
Duration : 21mn 30s
Bit rate mode : Constant
Bit rate : 384 Kbps
Channel(s) : 6 channels
Channel positions : Front: L C R, Side: L R, LFE
Sampling rate : 48.0 KHz
Bit depth : 16 bits
Compression mode : Lossy
Stream size : 59.1 MiB (20%)
Alignment : Aligned on interleaves
Interleave, duration : 32 ms (0.77 video frame)

Скриншоты

[cybertorrent.ru].t50726.torrent 
Торрент: Зарегистрирован [ 2018-04-22 09:32 ] · BC51940A0B0FC03B768ABC57D8F7B9BFC3CC4D

Скачать .torrent

Скачать

18 KB

Статус: проверено
Скачан: 0 раз
Размер: 3,4 GB
Профиль [ЛС]
Показать сообщения:    

Текущее время: 15-Дек 10:18

Часовой пояс: UTC ± 0



Вы не можете начинать темы
Вы не можете отвечать на сообщения
Вы не можете редактировать свои сообщения
Вы не можете удалять свои сообщения
Вы не можете голосовать в опросах
Вы не можете прикреплять файлы к сообщениям
Вы можете скачивать файлы
Torrents24.ru открытый BitTorrent Torrents24.pl открытый BitTorrent CyberTorrent.ru открытый BitTorrent BtList.ru рейтинг BitTorrent трекеров Яндекс.Метрика