Статистика раздачи
Размер:  2,71 GB   |    Зарегистрирован:  3 месяца 11 дней   |    Скачан:  0 раз

Полного источника не было: Никогда

 
   
 
 

lopster ®

Пол:
Не указан
Стаж:
3 месяца 11 дней
Сообщений:
612

САЛЮТ - 7- Жанр: драма, приключения, триллер
Год выпуска: 2017
Продолжительность: 01:58:32
Режиссер: Клим Шипенко
В ролях: Владимир Вдовиченков (Федоров Владимир Джанибеков), Павел Деревянко (Виктор Савиных), Александр Самойленко (Валерий Рюмин, руководитель полёта), Виталий Хаев, Оксана Фандера, Любовь Аксенова, Роман Перелыгин (Плахов), Полина Руденко (Оля, дочь космонавта Владимира Федорова), Александра Серебрякова (сотрудница ЦУП), Мария Миронова (Нина, жена Федорова), Наталья Кудряшова, Александр Ратников
Описание: Космическая станция «Салют-7», находящаяся на орбите в беспилотном режиме, неожиданно перестает отвечать на сигналы центра управления полетом. Принято решение об отправке на орбиту спасательной экспедиции. Космический экипаж должен найти «мертвую» станцию и впервые в мире провести стыковку с 20-тонной глыбой неуправляемого железа.
Космонавты понимают, что шансов вернуться на Землю у них немного. Но этот рискованный путь — единственно возможный. Они должны не только проникнуть на «Салют-7», но и оживить его. Смогут ли два человека предотвратить неминуемую катастрофу и спасти планету от падения станции? Спасательная экспедиция превращается в опасное испытание. На орбите разворачивается настоящий космический детектив. Фильм основан на реальных событиях: полет к станции «Салют-7» в 1985 году считается самым сложным полетом в истории космонавтики.- -Качество: BDRip-AVC (исходник - Blu-ray|SALYUT_7_FRA_BLUEBIRD)
Формат видео: MKV
Видео: x264, 1152x484 (2.40:1) 24.000 fps, ~2760 kbps, 0.206 bit/pixel
Аудио: 48 kHz, AC3 Dolby Digital, 5.1 (Front: L C R, Side: L R, LFE) ch, ~448 kbps-

MediaInfo | x264 log

Format : Matroska
Format version : Version 4 / Version 2
File size : 2.71 GiB
Duration : 1 h 58 min
Overall bit rate : 3 273 kb/s
Movie name : Салют-7 (2017) :: AFM ::
Encoded date : UTC 2018-02-03 19:43:59
Writing application : mkvmerge v8.3.0 ('Over the Horizon') 32bit
Writing library : libebml v1.3.1 + libmatroska v1.4.2
Cover : Yes
Attachments : cover.jpg
Video
ID : 1
Format : AVC
Format/Info : Advanced Video Codec
Format profile : High@L4.1
Format settings, CABAC : Yes
Format settings, RefFrames : 12 frames
Codec ID : V_MPEG4/ISO/AVC
Duration : 1 h 58 min
Bit rate : 2 760 kb/s
Width : 1 152 pixels
Height : 484 pixels
Display aspect ratio : 2.40:1
Frame rate mode : Constant
Frame rate : 24.000 FPS
Color space : YUV
Chroma subsampling : 4:2:0
Bit depth : 8 bits
Scan type : Progressive
Bits/(Pixel*Frame) : 0.206
Stream size : 2.28 GiB (84%)
Title : BDRip by AFM
Writing library : x264 core 152 r2851+45 9658d1a 7mod [8-bit@all X86_64]
Encoding settings : cabac=1 / ref=12 / deblock=1:-3:-2 / analyse=0x3:0x133 / me=umh / subme=10 / psy=1 / fade_compensate=0.00 / psy_rd=1.00:0.00 / mixed_ref=1 / me_range=32 / chroma_me=0 / trellis=2 / 8x8dct=1 / cqm=0 / deadzone=21,11 / fast_pskip=0 / chroma_qp_offset=-2 / threads=6 / lookahead_threads=1 / sliced_threads=0 / nr=0 / decimate=1 / interlaced=0 / bluray_compat=0 / constrained_intra=0 / fgo=0 / bframes=14 / b_pyramid=2 / b_adapt=2 / b_bias=0 / direct=1 / weightb=1 / open_gop=0 / weightp=2 / keyint=240 / keyint_min=23 / scenecut=40 / intra_refresh=0 / rc_lookahead=90 / rc=crf / mbtree=0 / crf=18.5000 / qcomp=0.65 / qpmin=0:0:0 / qpmax=69:69:69 / qpstep=4 / vbv_maxrate=50000 / vbv_bufsize=62500 / crf_max=0.0 / nal_hrd=none / filler=0 / ip_ratio=1.35 / pb_ratio=1.25 / aq=3:0.80 / aq-sensitivity=10.00 / aq-factor=1.00:1.00:1.00 / aq2=0 / aq3=0
Language : Russian
Default : Yes
Forced : No
Audio
ID : 2
Format : AC-3
Format/Info : Audio Coding 3
Format settings, Endianness : Big
Codec ID : A_AC3
Duration : 1 h 58 min
Bit rate mode : Constant
Bit rate : 448 kb/s
Channel(s) : 6 channels
Channel positions : Front: L C R, Side: L R, LFE
Sampling rate : 48.0 kHz
Frame rate : 31.250 FPS (1536 SPF)
Bit depth : 16 bits
Compression mode : Lossy
Stream size : 380 MiB (14%)
Title : AС3 5.1 ~448 kbps
Language : Russian
Service kind : Complete Main
Default : Yes
Forced : No
Menu
00:00:00.000 : ru:Глава 1
00:20:34.416 : ru:Глава 2
00:42:46.416 : ru:Глава 3
01:05:55.958 : ru:Глава 4
01:22:23.625 : ru:Глава 5
01:38:37.458 : ru:Глава 6

x264

x264 [info]: frame I:1247 Avg QP:16.75 size: 73414
x264 [info]: frame P:32585 Avg QP:18.30 size: 32449
x264 [info]: frame B:136864 Avg QP:20.25 size: 9943
x264 [info]: consecutive B-frames: 1.2% 1.1% 5.1% 13.2% 11.2% 57.1% 3.5% 2.3% 1.8% 1.3% 0.5% 0.5% 0.3% 0.3% 0.6%
x264 [info]: mb I I16..4: 5.8% 74.4% 19.8%
x264 [info]: mb P I16..4: 1.4% 11.2% 2.2% P16..4: 36.4% 25.5% 17.5% 0.9% 0.3% skip: 4.4%
x264 [info]: mb B I16..4: 0.1% 0.7% 0.2% B16..8: 39.3% 11.9% 3.5% direct: 7.2% skip:37.1% L0:43.0% L1:43.2% BI:13.8%
x264 [info]: 8x8 transform intra:74.4% inter:58.4%
x264 [info]: coded y,uvDC,uvAC intra: 83.5% 80.0% 56.7% inter: 27.8% 21.3% 2.9%
x264 [info]: i16 v,h,dc,p: 59% 15% 11% 15%
x264 [info]: i8 v,h,dc,ddl,ddr,vr,hd,vl,hu: 12% 8% 10% 9% 13% 12% 12% 11% 12%
x264 [info]: i4 v,h,dc,ddl,ddr,vr,hd,vl,hu: 35% 6% 5% 7% 10% 10% 10% 8% 9%
x264 [info]: i8c dc,h,v,p: 43% 25% 18% 13%
x264 [info]: Weighted P-Frames: Y:97.2% UV:3.3%
x264 [info]: ref P L0: 47.8% 12.9% 16.2% 5.7% 4.7% 3.2% 3.0% 1.6% 1.5% 1.1% 1.2% 1.0% 0.1% 0.0%
x264 [info]: ref B L0: 77.1% 9.5% 4.7% 2.4% 1.7% 1.4% 1.1% 0.7% 0.6% 0.4% 0.2%
x264 [info]: ref B L1: 95.4% 4.6%
x264 [info]: kb/s:2822.93

Скриншоты

с названием

[cybertorrent.ru].t509.torrent 
Торрент: Зарегистрирован [ 2018-02-15 15:48 ] · B02CD0160EB858EA88CFD3FD76BB0F3B738D6AF9

Скачать .torrent

Скачать

14 KB

Статус: проверено
Скачан: 0 раз
Размер: 2,71 GB
Профиль [ЛС]
Показать сообщения:    

Текущее время: 27-Май 01:41

Часовой пояс: UTC ± 0



Вы не можете начинать темы
Вы не можете отвечать на сообщения
Вы не можете редактировать свои сообщения
Вы не можете удалять свои сообщения
Вы не можете голосовать в опросах
Вы не можете прикреплять файлы к сообщениям
Вы можете скачивать файлы