Статистика раздачи
Размер:  1 GB   |    Зарегистрирован:  4 месяца 22 дня   |    Скачан:  0 раз

Полного источника не было: Никогда

 
   
 
 

Симка ®

Пол:
Не указан
Стаж:
7 месяцев 3 дня
Сообщений:
73

Брат мой
Жанр: биография, исторический фильм
Год выпуска: 1971
Продолжительность: 01:25:18
Режиссёр: Абдулла Карсакбаев
В ролях: Куман Тастанбеков, Анна Лисянская, Алексей Золотницкий, Евгений Красавцев, Гурам Гогава, Ирина Куберская, Кененбай Кожабеков, Макиль Куланбаев, Ашир Чокубаев, Анвар Кенджаев, Меруерт Утекешева, З. Мендибаев, О. Арыстанов, Т. Укимов, Болат Калымбетов, Нуржуман Ихтымбаев
Описание: В фильме отражены два периода жизни Гани Муратбаева — работа по оказанию помощи голодающим Поволжья в 1921 году и его деятельность в КИМе, в Москве. Он прожил короткую, но очень яркую жизнь, полную борьбы и труда.
Доп. информация:
Производство
Казахфильм
Премьера
1972 (Москва)
Семпл: https://www.sendspace.com/file/kw87xn
Качество видео: VHSRip
Формат видео: AVI
Видео: 640x320 (2:1), 25 fps, XviD build 1541 kbps.
Аудио: 48 kHz, MPEG Layer 3, 2 ch, ~128 kbps avg

MediaInfo

Общее
Полное имя : D:\Брат мой.1971.avi
Формат : AVI
Формат/Информация : Audio Video Interleave
Размер файла : 1,00 Гбайт
Продолжительность : 1 ч. 25 м.
Общий поток : 1682 Кбит/сек
Программа кодирования : Lavf56.40.101
Видео
Идентификатор : 0
Формат : xvid
Идентификатор кодека : xvid
Продолжительность : 1 ч. 25 м.
Битрейт : 1541 Кбит/сек
Ширина : 640 пикселей
Высота : 320 пикселей
Соотношение сторон : 2,000
Частота кадров : 25,000 кадров/сек
Тип развёртки : Прогрессивная
Бит/(Пиксели*Кадры) : 0.301
Размер потока : 940 Мбайт (92%)
Аудио
Идентификатор : 1
Формат : MPEG Audio
Версия формата : Version 1
Профиль формата : Layer 3
Настройки формата : Joint stereo / MS Stereo
Идентификатор кодека : 55
Идентификатор кодека/Подсказка : MP3
Продолжительность : 1 ч. 25 м.
Вид битрейта : Постоянный
Битрейт : 128 Кбит/сек
Каналы : 2 канала
Частота : 48,0 КГц
Метод сжатия : С потерями
Размер потока : 78,1 Мбайт (8%)
Выравнивание : Соединение по промежуткам
Продолжительность промежутка : 24 мс. (0,60 видеокадр)
Время предзагрузки промежутка : 24 мс.
Библиотека кодирования : LAME3.99.5
[cybertorrent.ru].t50941.torrent 
Торрент: Зарегистрирован [ 2018-04-26 21:09 ] · 2F7FE3D667C83E346D31D729EF257FA02AC6E551

Скачать .torrent

Скачать

11 KB

Статус: проверено
Скачан: 0 раз
Размер: 1 GB
Профиль [ЛС]
Показать сообщения:    

Текущее время: 18-Сен 21:16

Часовой пояс: UTC ± 0



Вы не можете начинать темы
Вы не можете отвечать на сообщения
Вы не можете редактировать свои сообщения
Вы не можете удалять свои сообщения
Вы не можете голосовать в опросах
Вы не можете прикреплять файлы к сообщениям
Вы можете скачивать файлы
Torrents24.ru открытый BitTorrent Torrents24.pl открытый BitTorrent CyberTorrent.ru открытый BitTorrent BtList.ru рейтинг BitTorrent трекеров Яндекс.Метрика