Статистика раздачи
Размер:  1008 MB   |    Зарегистрирован:  4 месяца 29 дней   |    Скачан:  0 раз

Полного источника не было: Никогда

 
   
 
 

Симка ®

Пол:
Не указан
Стаж:
7 месяцев 10 дней
Сообщений:
73

Волшебная папаха
Жанр: приключения, семейное кино, сказка
Год выпуска: 1990
Продолжительность: 01:19:48
Режиссёр: Измаил Бурнацев
В ролях: Исак Гогичев, Коста (Константин) Бирагов, Лактемир Дзтиев, Тимур Тлатов, Тереза Кантемирова, Маирбек Цихиев, Диана Бурнацева, Виталий Бадтиев, Батрбек 'Бабле' Дзбоев, Анжелика Круглова, Константин Притула, Владимир Макиев, Константин Каллагов, Юрий Кулаев
Описание: Фильм, снятый по мотивам осетинских народных сказок, в комедийной форме рассказывает о приключениях горца-бедняка Уари, осмелившегося выступить против трех разбойников-абреков, наводящих ужас на всю округу.
Доп. информация:
Производство
Северо-Осетинская студия телефильмов
Семпл: https://www.sendspace.com/file/qlvejd
Качество видео: VHSRip
Формат видео: AVI
Видео: 640x480 (4:3), 25 fps, XviD build 1626 kbps.
Аудио: 48 kHz, MPEG Layer 3, 2 ch, ~128 kbps avg

MediaInfo

Общее
Полное имя : D:\Волшебная папаха.avi
Формат : AVI
Формат/Информация : Audio Video Interleave
Размер файла : 1008 Мбайт
Продолжительность : 1 ч. 19 м.
Общий поток : 1767 Кбит/сек
Программа кодирования : Lavf56.40.101
Видео
Идентификатор : 0
Формат : xvid
Идентификатор кодека : xvid
Продолжительность : 1 ч. 19 м.
Битрейт : 1626 Кбит/сек
Ширина : 640 пикселей
Высота : 480 пикселей
Соотношение сторон : 4:3
Частота кадров : 25,000 кадров/сек
Тип развёртки : Прогрессивная
Бит/(Пиксели*Кадры) : 0.212
Размер потока : 928 Мбайт (92%)
Аудио
Идентификатор : 1
Формат : MPEG Audio
Версия формата : Version 1
Профиль формата : Layer 3
Настройки формата : Joint stereo / MS Stereo
Идентификатор кодека : 55
Идентификатор кодека/Подсказка : MP3
Продолжительность : 1 ч. 19 м.
Вид битрейта : Постоянный
Битрейт : 128 Кбит/сек
Каналы : 2 канала
Частота : 48,0 КГц
Метод сжатия : С потерями
Размер потока : 73,1 Мбайт (7%)
Выравнивание : Соединение по промежуткам
Продолжительность промежутка : 24 мс. (0,60 видеокадр)
Время предзагрузки промежутка : 24 мс.
[cybertorrent.ru].t50942.torrent 
Торрент: Зарегистрирован [ 2018-04-26 21:09 ] · E1A502DC135892B73B073A32E84A7994D3BE1730

Скачать .torrent

Скачать

20 KB

Статус: проверено
Скачан: 0 раз
Размер: 1008 MB
Профиль [ЛС]
Показать сообщения:    

Текущее время: 26-Сен 10:19

Часовой пояс: UTC ± 0



Вы не можете начинать темы
Вы не можете отвечать на сообщения
Вы не можете редактировать свои сообщения
Вы не можете удалять свои сообщения
Вы не можете голосовать в опросах
Вы не можете прикреплять файлы к сообщениям
Вы можете скачивать файлы
Torrents24.ru открытый BitTorrent Torrents24.pl открытый BitTorrent CyberTorrent.ru открытый BitTorrent BtList.ru рейтинг BitTorrent трекеров Яндекс.Метрика