Статистика раздачи
Размер:  806 MB   |    Зарегистрирован:  7 месяцев 18 дней   |    Скачан:  0 раз

Полного источника не было: Никогда

 
   
 
 

Симка ®

Пол:
Не указан
Стаж:
9 месяцев 27 дней
Сообщений:
47

Не верь крику ночной птицы
Жанр: драма
Год выпуска: 1976
Продолжительность: 01:21:58
Режиссёр: Якоб Бургиу
В ролях: Василе Брескану, Антонина Лефтий, Михаил Волонтир, Ефим Лазарев, Василе Тэбырцэ, Константин Константинов, Евгений Герасимов, Алла Пекова, Михай Уреке, Люба Грузинова, Людмила Ефименко, Андрюша Бербер, Алеша Иорданов, Михай Препелицэ, Иван Грумеза, Виктор (Вилли) Бурхарт, Иван Мунтяну, Михаил Попов (III), Володя Брагиш
Описание: Сразу после войны фронтовик Василе Кэрунту пришел на машиностроительный завод, где работал Ион, ставший вскоре бригадиром. Оба они полюбили Марию, но замуж она вышла за Василе. С Марией он создал семью, воспитал четверых детей, трое из которых усыновленные сироты. И теперь, много лет спустя после первого соперничества, руководство завода освобождает Иону от бригадирства и вместо него назначает Василе...
Доп. информация:
Производство
Молдова-филм
Премьера
июль 1977 (Москва)
Семпл: https://www.sendspace.com/file/3grkg0
Качество видео: VHSRip
Формат видео: AVI
Видео: 640x352 (16:9), 25 fps, XviD build 1234 kbps.
Аудио: 48 kHz, MPEG Layer 3, 2 ch, ~128 kbps avg

MediaInfo

Общее
Полное имя : D:\Не верь Крику Ночной Птицы.1976.avi
Формат : AVI
Формат/Информация : Audio Video Interleave
Размер файла : 806 Мбайт
Продолжительность : 1 ч. 21 м.
Общий поток : 1375 Кбит/сек
Программа кодирования : Lavf56.40.101
Видео
Идентификатор : 0
Формат : xvid
Идентификатор кодека : xvid
Продолжительность : 1 ч. 21 м.
Битрейт : 1234 Кбит/сек
Ширина : 640 пикселей
Высота : 352 пикселя
Соотношение сторон : 16:9
Частота кадров : 25,000 кадров/сек
Тип развёртки : Прогрессивная
Бит/(Пиксели*Кадры) : 0.219
Размер потока : 724 Мбайт (90%)
Аудио
Идентификатор : 1
Формат : MPEG Audio
Версия формата : Version 1
Профиль формата : Layer 3
Настройки формата : Joint stereo / MS Stereo
Идентификатор кодека : 55
Идентификатор кодека/Подсказка : MP3
Продолжительность : 1 ч. 21 м.
Вид битрейта : Постоянный
Битрейт : 128 Кбит/сек
Каналы : 2 канала
Частота : 48,0 КГц
Метод сжатия : С потерями
Размер потока : 75,0 Мбайт (9%)
Выравнивание : Соединение по промежуткам
Продолжительность промежутка : 24 мс. (0,60 видеокадр)
Время предзагрузки промежутка : 24 мс.
[cybertorrent.ru].t50945.torrent 
Торрент: Зарегистрирован [ 2018-04-26 21:09 ] · AEA470B8EFB746C8EB3229BD1E3B1A97F3503E7E

Скачать .torrent

Скачать

16 KB

Статус: проверено
Скачан: 0 раз
Размер: 806 MB
Профиль [ЛС]
Показать сообщения:    

Текущее время: 15-Дек 09:18

Часовой пояс: UTC ± 0



Вы не можете начинать темы
Вы не можете отвечать на сообщения
Вы не можете редактировать свои сообщения
Вы не можете удалять свои сообщения
Вы не можете голосовать в опросах
Вы не можете прикреплять файлы к сообщениям
Вы можете скачивать файлы
Torrents24.ru открытый BitTorrent Torrents24.pl открытый BitTorrent CyberTorrent.ru открытый BitTorrent BtList.ru рейтинг BitTorrent трекеров Яндекс.Метрика