Статистика раздачи
Размер:  846 MB   |    Зарегистрирован:  2 месяца 24 дня   |    Скачан:  0 раз

Полного источника не было: Никогда

 
   
 
 

Симка ®

Пол:
Не указан
Стаж:
5 месяцев 6 дней
Сообщений:
73

Дневник Карлоса Эспинолы
Жанр: детский фильм
Год выпуска: 1976
Продолжительность: 01:09:40
Режиссёр: Валентин Селиванов
В ролях: Хоссе Бельместр, Марина Мухина, Карлос Сохо, Эдита Бланко, Сильвио Сегаль, Рикардо Артуро Моро, Исидоро Уго Роа, Сергей Денисов, Элеонора Шашкова, Вячеслав Шалевич, Антонина Дмитриева, Людмила Чурсина, Зейнаб Боцвадзе, Кахи Кавсадзе, Сергей Плотников, Павел Ремезов, Зинаида Сорочинская
Описание: Интернациональная школа-интернат для детей борцов за независимость, подпольщиков и эмигрантов. Нежная дружба одноклассницы помогает подростку Карлосу пережить тяжелый удар - известие о том, что его отец приговорен к смертной казни.
Доп. информация:
Производство
Киностудия им. Горького
Премьера
декабрь 1977
Семпл: https://www.sendspace.com/file/ysxnlr
Качество видео: VHSRip
Формат видео: AVI
Видео: 640x336 (1,905), 25 fps, XviD build 1557 kbps.
Аудио: 48 kHz, MPEG Layer 3, 2 ch, ~128 kbps avg

MediaInfo

Общее
Полное имя : D:\Дневник Карлоса Эспинолы.1976.avi
Формат : AVI
Формат/Информация : Audio Video Interleave
Размер файла : 846 Мбайт
Продолжительность : 1 ч. 9 м.
Общий поток : 1698 Кбит/сек
Программа кодирования : Lavf56.40.101
Видео
Идентификатор : 0
Формат : xvid
Идентификатор кодека : xvid
Продолжительность : 1 ч. 9 м.
Битрейт : 1557 Кбит/сек
Ширина : 640 пикселей
Высота : 336 пикселей
Соотношение сторон : 1,905
Частота кадров : 25,000 кадров/сек
Тип развёртки : Прогрессивная
Бит/(Пиксели*Кадры) : 0.290
Размер потока : 776 Мбайт (92%)
Аудио
Идентификатор : 1
Формат : MPEG Audio
Версия формата : Version 1
Профиль формата : Layer 3
Настройки формата : Joint stereo / MS Stereo
Идентификатор кодека : 55
Идентификатор кодека/Подсказка : MP3
Продолжительность : 1 ч. 9 м.
Вид битрейта : Постоянный
Битрейт : 128 Кбит/сек
Каналы : 2 канала
Частота : 48,0 КГц
Метод сжатия : С потерями
Размер потока : 63,8 Мбайт (8%)
Выравнивание : Соединение по промежуткам
Продолжительность промежутка : 24 мс. (0,60 видеокадр)
Время предзагрузки промежутка : 24 мс.
[cybertorrent.ru].t50946.torrent 
Торрент: Зарегистрирован [ 2018-04-26 21:09 ] · B60351FA3A3E1582C70BD81015E412FA7599093E

Скачать .torrent

Скачать

17 KB

Статус: проверено
Скачан: 0 раз
Размер: 846 MB
Профиль [ЛС]
Показать сообщения:    

Текущее время: 21-Июл 15:26

Часовой пояс: UTC ± 0



Вы не можете начинать темы
Вы не можете отвечать на сообщения
Вы не можете редактировать свои сообщения
Вы не можете удалять свои сообщения
Вы не можете голосовать в опросах
Вы не можете прикреплять файлы к сообщениям
Вы можете скачивать файлы