BitTorrent клиенты



Обитатели / The Lodgers (Брайан О'Мэлли / Brian O'Malley) [2017, Ирландия, ужасы, триллер, драма, BDRemux 1080p] DVO (HiWay Grope) + Sub (Rus, Eng) + Original Eng

Ответить на тему
Статистика раздачи
Размер:  17,43 GB   |    Зарегистрирован:  6 месяцев 9 дней   |    Скачан:  1 раз

Полного источника не было: 3 месяца 9 дней

 
   
 
 
Автор Сообщение

RussianGirl ®

Пол: Не указан

Стаж: 1 год

Сообщений: 1309

Создавать темы 13-Авг-2018 16:04

[Цитировать]

Обитатели / The Lodgers
Страна: Ирландия
Жанр: Ужасы, триллер, драма
Год выпуска: 2017
Продолжительность: 01:33:24
Перевод: Любительский (двухголосый закадровый) HiWay Grope
Субтитры: Русские FOCS , английские
Оригинальная аудиодорожка: Английский
Режиссер: Брайан О'Мэлли / Brian O'Malley
В ролях: Шарлотта Вега, Дэвид Брэдли (I), Мо Данфорд, Билл Милнер, Юджин Саймон, Дирдри О'Кейн, Рошин Мёрфи, Эммет Келли, Элайджа Иган, Брендан О'Рурк
Описание: Близнецы Рэйчел и Эдвард — единственные наследники старинного поместья, о котором давно ходит мрачная молва. Поговаривают, будто дом проклят, и в нём поселилось нечто иное, что внушает людям злую волю. Непослушание карается страшными муками.
Разрушить древнее проклятие — безумная идея, но первая влюблённость и неутолимое влечение к молодому солдату толкают юную Рэйчел на отчаянный шаг.Тип релиза: BDRemux 1080p
Контейнер: MKV
Видео: MPEG-4 AVC, 1080p, 1920:1080, 22.6 Mb/s, 23.976 fps
Аудио 1: АС3, 6 ch, 48 kHz, 384 kbps Русский
Аудио 2: DTS-HD MA 6 ch, 48 kHz, 3 724 kbps, 24-bit (DTS Core: 6 ch, 48 kHz, 1 509 kbps) Английский
Формат субтитров: SRT

MediaInfo

General
Unique ID : 212187902218211354000383626550875631795 (0x9FA1E749EED201EE9910D2935F99B0B3)
Complete name : G:\ФИЛЬМЫ\RuTRACKER\The.Lodgers.2017.REMUX.mkv
Format : Matroska
Format version : Version 4 / Version 2
File size : 17.4 GiB
Duration : 1 h 33 min
Overall bit rate mode : Variable
Overall bit rate : 26.7 Mb/s
Encoded date : UTC 2018-08-10 07:04:33
Writing application : mkvmerge v20.0.0 ('I Am The Sun') 64-bit
Writing library : libebml v1.3.5 + libmatroska v1.4.8
Video
ID : 1
Format : AVC
Format/Info : Advanced Video Codec
Format profile : High@L4.1
Format settings : CABAC / 3 Ref Frames
Format settings, CABAC : Yes
Format settings, RefFrames : 3 frames
Codec ID : V_MPEG4/ISO/AVC
Duration : 1 h 33 min
Bit rate mode : Variable
Bit rate : 22.6 Mb/s
Maximum bit rate : 32.9 Mb/s
Width : 1 920 pixels
Height : 1 080 pixels
Display aspect ratio : 16:9
Frame rate mode : Constant
Frame rate : 23.976 (24000/1001) FPS
Standard : NTSC
Color space : YUV
Chroma subsampling : 4:2:0
Bit depth : 8 bits
Scan type : Progressive
Bits/(Pixel*Frame) : 0.455
Stream size : 14.7 GiB (85%)
Language : English
Default : Yes
Forced : No
Color range : Limited
Color primaries : BT.709
Transfer characteristics : BT.709
Matrix coefficients : BT.709
Audio #1
ID : 2
Format : AC-3
Format/Info : Audio Coding 3
Codec ID : A_AC3
Duration : 1 h 33 min
Bit rate mode : Constant
Bit rate : 384 kb/s
Channel(s) : 6 channels
Channel positions : Front: L C R, Side: L R, LFE
Sampling rate : 48.0 kHz
Frame rate : 31.250 FPS (1536 SPF)
Bit depth : 16 bits
Compression mode : Lossy
Stream size : 257 MiB (1%)
Title : HiWay Grope
Language : Russian
Service kind : Complete Main
Default : Yes
Forced : No
Audio #2
ID : 3
Format : DTS
Format/Info : Digital Theater Systems
Format profile : MA / Core
Codec ID : A_DTS
Duration : 1 h 33 min
Bit rate mode : Variable / Constant
Bit rate : 3 724 kb/s / 1 509 kb/s
Channel(s) : 6 channels
Channel positions : Front: L C R, Side: L R, LFE
Sampling rate : 48.0 kHz
Frame rate : 93.750 FPS (512 SPF)
Bit depth : 24 bits
Compression mode : Lossless / Lossy
Stream size : 2.43 GiB (14%)
Language : English
Default : No
Forced : No
Text #1
ID : 4
Format : UTF-8
Codec ID : S_TEXT/UTF8
Codec ID/Info : UTF-8 Plain Text
Duration : 1 h 28 min
Bit rate : 55 b/s
Count of elements : 731
Stream size : 36.1 KiB (0%)
Language : Russian
Default : No
Forced : No
Text #2
ID : 5
Format : UTF-8
Codec ID : S_TEXT/UTF8
Codec ID/Info : UTF-8 Plain Text
Duration : 1 h 26 min
Bit rate : 31 b/s
Count of elements : 663
Stream size : 19.8 KiB (0%)
Language : English
Default : No
Forced : No
Menu
00:00:00.000 : en:Chapter 1
00:15:13.412 : en:Chapter 2
00:31:05.864 : en:Chapter 3
00:45:48.245 : en:Chapter 4
00:59:09.546 : en:Chapter 5
01:10:28.224 : en:Chapter 6
01:18:17.192 : en:Chapter 7
01:29:07.342 : en:Chapter 8

Скриншоты

[cybertorrent.ru].t50970.torrent 
Торрент: Зарегистрирован [ 2018-08-13 16:05 ] · 669A3D6E6AB796C5C1DBCB470A418CA1975196A4

Скачать .torrent

Скачать

88 KB

Статус: проверено
Скачан: 1 раз
Размер: 17,43 GB
terms.php
[Профиль] [ЛС]
Показать сообщения:    
Ответить на тему

Текущее время: 23-Фев 15:45

Часовой пояс: UTC + 3



Вы не можете начинать темы
Вы не можете отвечать на сообщения
Вы не можете редактировать свои сообщения
Вы не можете удалять свои сообщения
Вы не можете голосовать в опросах
Вы не можете прикреплять файлы к сообщениям
Вы можете скачивать файлы