Статистика раздачи
Размер:  4,66 GB   |    Зарегистрирован:  3 месяца 6 дней   |    Скачан:  0 раз

Полного источника не было: Никогда

 
   
 
 

lopster ®

Пол:
Не указан
Стаж:
3 месяца 6 дней
Сообщений:
612

Территория
Жанр: драма, приключения
Год выпуска: 2015
Продолжительность: 02:31:52
Режиссёр: Александр Мельник
В ролях: Константин Лавроненко, Григорий Добрыгин, Егор Бероев, Ксения Кутепова, Евгений Цыганов, Владислав Абашин, Герасим Васильев, Константин Шелестун, Константин Балакирев, Олег Шапков
Описание: Территория — это место, где люди проверяются на прочность. Необозримые пространства, где тундра встречается с ледяными торосами Ледовитого океана. Суровый русский север, которому способны бросить вызов немногие. Геолог Илья Чинков, одержимый идеей найти легендарное золото Территории, собирает команду смельчаков, готовых поставить на карту все, включая собственные жизни.
Сэмпл: https://yadi.sk/i/lkWiHf8i3S5SQk
Качество видео: WEB-DLRip
Формат видео: MKV
Видео: 960x532 (2,40:1), 25 fps, AVC, ~3926 kbps
Аудио: AC3, 48 kHz, 6 каналов, 384 kbps

MediaInfo

Формат : Matroska
Версия формата : Version 4 / Version 2
Размер файла : 4,66 Гбайт
Продолжительность : 2 ч. 31 м.
Общий поток : 4397 Кбит/сек
Дата кодирования : UTC 2015-05-14 18:13:09
Программа кодирования : mkvmerge v6.9.1 ('Blue Panther') 64bit built on Apr 18 2014 18:23:38
Библиотека кодирования : libebml v1.3.0 + libmatroska v1.4.1
Видео
Идентификатор : 1
Формат : AVC
Формат/Информация : Advanced Video Codec
Профиль формата : Main@L3.1
Настройки формата : 2 Ref Frames
Параметр CABAC формата : Нет
Параметр RefFrames формата : 2 кадра
Идентификатор кодека : V_MPEG4/ISO/AVC
Продолжительность : 2 ч. 31 м.
Битрейт : 3926 Кбит/сек
Ширина : 960 пикселей
Высота : 532 пикселя
Соотношение сторон : 2,40:1
Режим частоты кадров : Постоянный
Частота кадров : 25,000 кадров/сек
Цветовое пространство : YUV
Субдискретизация насыщенности : 4:2:0
Битовая глубина : 8 бит
Тип развёртки : Прогрессивная
Бит/(Пиксели*Кадры) : 0.307
Размер потока : 4,16 Гбайт (89%)
Язык : English
Default : Да
Forced : Нет
Цветовой диапазон : Limited
Основные цвета : BT.709
Характеристики трансфера : BT.709
Коэффициенты матрицы : BT.709
Аудио
Идентификатор : 2
Формат : AC-3
Формат/Информация : Audio Coding 3
Идентификатор кодека : A_AC3
Продолжительность : 2 ч. 31 м.
Вид битрейта : Постоянный
Битрейт : 384 Кбит/сек
Каналы : 6 каналов
Расположение каналов : Front: L C R, Side: L R, LFE
Частота : 48,0 КГц
Частота кадров : 31,250 кадров/сек (1536 SPF)
Битовая глубина : 16 бит
Метод сжатия : С потерями
Размер потока : 417 Мбайт (9%)
Язык : Russian
ServiceKind/String : Complete Main
Default : Да
Forced : Нет
Меню
00:00:00.000 : en:Глава 1
00:04:33.000 : en:Глава 2
00:10:45.000 : en:Глава 3
00:18:03.000 : en:Глава 4
00:22:27.000 : en:Глава 5
00:27:01.000 : en:Глава 6
00:32:39.000 : en:Глава 7
00:39:20.000 : en:Глава 8
00:45:28.000 : en:Глава 9
00:51:28.000 : en:Глава 10
00:55:35.000 : en:Глава 11
01:01:19.000 : en:Глава 12
01:06:59.000 : en:Глава 13
01:15:13.000 : en:Глава 14
01:20:38.000 : en:Глава 15
01:25:15.000 : en:Глава 16
01:33:46.000 : en:Глава 17
01:37:34.000 : en:Глава 18
01:42:21.000 : en:Глава 19
01:47:36.000 : en:Глава 20
01:50:58.000 : en:Глава 21
01:55:29.000 : en:Глава 22
02:01:33.000 : en:Глава 23
02:09:22.000 : en:Глава 24
02:14:02.000 : en:Глава 25
02:19:15.000 : en:Глава 26
02:23:30.000 : en:Глава 27

Скриншот c названием фильма

Скриншоты

[cybertorrent.ru].t510.torrent 
Торрент: Зарегистрирован [ 2018-02-15 15:48 ] · 66A1A5C750ADC27F7E4712ED2E051A49F0F1D003

Скачать .torrent

Скачать

24 KB

Статус: проверено
Скачан: 0 раз
Размер: 4,66 GB
Профиль [ЛС]
Показать сообщения:    

Текущее время: 21-Май 18:52

Часовой пояс: UTC ± 0



Вы не можете начинать темы
Вы не можете отвечать на сообщения
Вы не можете редактировать свои сообщения
Вы не можете удалять свои сообщения
Вы не можете голосовать в опросах
Вы не можете прикреплять файлы к сообщениям
Вы можете скачивать файлы