Статистика раздачи
Размер:  743 MB   |    Зарегистрирован:  6 месяцев 23 дня   |    Скачан:  0 раз

Полного источника не было: Никогда

 
   
 
 

Симка ®

Пол:
Не указан
Стаж:
9 месяцев 5 дней
Сообщений:
47

Райхан
Год выпуска: 1940
Жанр: драма
Продолжительность: 01:11:20.560 (107014 frames)
Субтитры: нет
Режиссер: Моисей Левин
В ролях: Хадиша Букеева, Елеубай Умурзаков, Серке Кожамкулов, Калибек Куанышпаев, Шакен Айманов, Рахия Койчубаева, Константин Нассонов, Сергей Бартенев, Жагда Огузбаев
Описание: О раскрепощении казахских женщин при Советской власти. Октябрьская революция освободила казахский народ от гнета феодалов. Но в глухих горах еще держится байская власть. В районе Бала-Шакпак хозяйничает бай Жаксен. В счет погашения долга он решает взять в жены дочь бедной вдовы, Райхан. В первую же брачную дочь девушка бежит от ненавистного ей бая. С помощью русского коммуниста Андрея она уезжает в город учиться. Проходят годы… Райхан возвращается в родной аул зоотехником. С большим трудом удается девушке убедить табунщиков следовать новым методом выпащивания конского молодняка. Постепенно крепнет авторитет Райхан. Между тем в ауле вновь появляется бай Жексен, бежавший из заключения. Он поджигает на горных пастбищах траву, чтобы спугнуть колхозных лошадей. Во время поисков табуна Райхан встречается с Жексеном. Девушке грозит гибель. Однако подоспевшие табунщики выручают Райхан.
Качество: SATRip
Формат: AVI
Видео кодек: XviD
Аудио кодек: МР3
Видео: 640x480 (1.33:1), 25 fps, XviD build 73 ~1317 kbps avg, 0.17 bit/pixel
Аудио: 48 kHz, MPEG Layer 3, 2 ch, ~128.00 kbps avg

Скриншоты

Медиаинфо

E:\004 Мои раздачи\Райхан 745\raihan_745_[torrents.ru]_by_bm11.avi
General
Complete name : E:\004 Мои раздачи\Райхан 745\raihan_745_[torrents.ru]_by_bm11.avi
Format : AVI
Format/Info : Audio Video Interleave
File size : 743 MiB
Duration : 1h 11mn
Overall bit rate : 1 455 Kbps
Director : bm11
Writing application : VirtualDubMod 1.5.10.3 | www.virtualdub-fr.org || (build 2550/release)
Video
Format : MPEG-4 Visual
Format profile : Streaming Video@L1
Format settings, BVOP : Yes
Format settings, QPel : No
Format settings, GMC : No warppoints
Format settings, Matrix : Custom
Codec ID : XVID
Codec ID/Hint : XviD
Duration : 1h 11mn
Bit rate : 1 318 Kbps
Width : 640 pixels
Height : 480 pixels
Display aspect ratio : 4/3
Frame rate : 25.000 fps
Resolution : 24 bits
Colorimetry : 4:2:0
Scan type : Progressive
Bits/(Pixel*Frame) : 0.172
Stream size : 672 MiB (91%)
Writing library : XviD 73
Audio
Format : MPEG Audio
Format version : Version 1
Format profile : Layer 3
Codec ID : 55
Codec ID/Hint : MP3
Duration : 1h 11mn
Bit rate mode : Constant
Bit rate : 128 Kbps
Minimum bit rate : 128 Kbps
Channel(s) : 2 channels
Sampling rate : 48.0 KHz
Resolution : 16 bits
Stream size : 65.3 MiB (9%)
Alignment : Aligned on interleaves
Interleave, duration : 40 ms (1.00 video frame)
Interleave, preload duration : 504 ms
Writing library : LAME3.99r
Encoding settings : CBR
[cybertorrent.ru].t51069.torrent 
Торрент: Зарегистрирован [ 2018-04-26 21:09 ] · 8D3ECE3A5BA0B018A17B3560A28E33986F4CF183

Скачать .torrent

Скачать

15 KB

Статус: проверено
Скачан: 0 раз
Размер: 743 MB
Профиль [ЛС]
Показать сообщения:    

Текущее время: 20-Ноя 13:48

Часовой пояс: UTC ± 0



Вы не можете начинать темы
Вы не можете отвечать на сообщения
Вы не можете редактировать свои сообщения
Вы не можете удалять свои сообщения
Вы не можете голосовать в опросах
Вы не можете прикреплять файлы к сообщениям
Вы можете скачивать файлы
Torrents24.ru открытый BitTorrent Torrents24.pl открытый BitTorrent CyberTorrent.ru открытый BitTorrent BtList.ru рейтинг BitTorrent трекеров Яндекс.Метрика