Статистика раздачи
Размер:  745 MB   |    Зарегистрирован:  2 месяца 24 дня   |    Скачан:  0 раз

Полного источника не было: Никогда

 
   
 
 

Симка ®

Пол:
Не указан
Стаж:
5 месяцев 6 дней
Сообщений:
73

Любовь и голуби
Год выпуска: 1984
Жанр: мелодрама, комедия
Продолжительность: 01:44:43.996 (150665 frames)
Субтитры: нет
Режиссер: Владимир Меньшов
В ролях: Александр Михайлов, Нина Дорошина, Людмила Гурченко, Сергей Юрский, Наталья Тенякова, Янина Лисовская, Игорь Лях, Лада Сизоненко, Владимир Меньшов
Описание: Василий Кузякин, добрый и душевный человек, живет в сибирском селе с женой Надеждой и тремя детьми-подростками (Людой, Лёнькой и Олей), работает на лесопилке, а свободное время и всю душу отдает голубям. Любит их, ёшкин кот, больше жизни (и, кажется, больше жены). Естественно, Надежде это категорически не нравится: воды бы натаскал (наплевать, что натаскано, а пусть еще принесет), плитку починил, другое чего там по хозяйству сделал. Так ведь нет - всё, ирод, стремится на крышу, к своим голубям. Семейный бюждет, "последние" деньги на них переводит. Однажды Василий получает на лесопилке "производственную травму бревном по голове", а затем — путёвку на "курорт органов движения", на море, которого сроду не видал. И там случается у него роман с "роковой женщиной" Раисой Захаровной...
Качество: BDRip
Формат: AVI
Видео кодек: XviD
Аудио кодек: МР3
Видео: 672x384 (1.75:1), 23.976 fps, XviD build 73 ~857 kbps avg, 0.14 bit/pixel
Аудио: 48 kHz, MPEG Layer 3, 2 ch, ~128.00 kbps avg

Скриншоты

Медиаинфо

E:\004 Мои раздачи\Любовь и голуби 745\lubov_i_golubi_745_[torrents.ru]_by_bm11.avi
General
Complete name : E:\004 Мои раздачи\Любовь и голуби 745\lubov_i_golubi_745_[torrents.ru]_by_bm11.avi
Format : AVI
Format/Info : Audio Video Interleave
File size : 745 MiB
Duration : 1h 44mn
Overall bit rate : 995 Kbps
Director : bm11
Writing application : VirtualDubModRus 1.5.10.2 (build 2542/release)
Video
Format : MPEG-4 Visual
Format profile : Streaming Video@L1
Format settings, BVOP : Yes
Format settings, QPel : No
Format settings, GMC : No warppoints
Format settings, Matrix : Custom
Codec ID : XVID
Codec ID/Hint : XviD
Duration : 1h 44mn
Bit rate : 858 Kbps
Width : 672 pixels
Height : 384 pixels
Display aspect ratio : 16/9
Frame rate : 23.976 fps
Resolution : 24 bits
Colorimetry : 4:2:0
Scan type : Progressive
Bits/(Pixel*Frame) : 0.139
Stream size : 642 MiB (86%)
Writing library : XviD 73
Audio
Format : MPEG Audio
Format version : Version 1
Format profile : Layer 3
Codec ID : 55
Codec ID/Hint : MP3
Duration : 1h 44mn
Bit rate mode : Constant
Bit rate : 128 Kbps
Minimum bit rate : 128 Kbps
Channel(s) : 2 channels
Sampling rate : 48.0 KHz
Resolution : 16 bits
Stream size : 95.9 MiB (13%)
Alignment : Aligned on interleaves
Interleave, duration : 42 ms (1.00 video frame)
Interleave, preload duration : 504 ms
Writing library : LAME3.99r
Encoding settings : CBR
[cybertorrent.ru].t51072.torrent 
Торрент: Зарегистрирован [ 2018-04-26 21:09 ] · 17C633D45345396EE834FC814C6F4F8149DCC6CD

Скачать .torrent

Скачать

15 KB

Статус: проверено
Скачан: 0 раз
Размер: 745 MB
Профиль [ЛС]
Показать сообщения:    

Текущее время: 21-Июл 15:11

Часовой пояс: UTC ± 0



Вы не можете начинать темы
Вы не можете отвечать на сообщения
Вы не можете редактировать свои сообщения
Вы не можете удалять свои сообщения
Вы не можете голосовать в опросах
Вы не можете прикреплять файлы к сообщениям
Вы можете скачивать файлы