Статистика раздачи
Размер:  1,46 GB   |    Зарегистрирован:  3 месяца 8 дней   |    Скачан:  0 раз

Полного источника не было: Никогда

 
   
 
 

lopster ®

Пол:
Не указан
Стаж:
3 месяца 8 дней
Сообщений:
612

На море!
Жанр: комедия
Год выпуска: 2008
Продолжительность: 01:38:37
Режиссёр: Ярослав Чеважевский
В ролях: Ярослав Чеважевский
Алёна Бабенко
Инга Оболдина
Юрий Колокольников
Павел Деревянко
Ульяна Ворожейкина
Сюзанна Шпак
Евгения Лютая
Курт Глокцин
Бритта Шмеллинг
Описание: Две семьи с друзьями решают провести новогодние каникулы большой и шумной компанией на Канарских островах. Пока в России холодная зима, они будут наслаждаться солнцем и морем. Казалось бы, нашему туристу ничто не может помешать. Однако обстоятельства не позволят им не то что искупаться, а даже одним глазком увидеть море.
Доп. информация: https://www.kinopoisk.ru/film/na-more-2008-422939/
Сэмпл: http://sendfile.su/1396786
Качество видео: DVDRip найден в сети
Формат видео: AVI
Видео: 720x384 (1.88:1), 25 fps, XviD build 50 ~1659 kbps avg, 0.24 bit/pixel
Аудио: 48 kHz, AC3 Dolby Digital, 3/2 (L,C,R,l,r) + LFE ch, ~448 kbps

MediaInfo

General
Complete name : D:\Na.moree.2009.avi
Format : AVI
Format/Info : Audio Video Interleave
File size : 1.46 GiB
Duration : 1h 38mn
Overall bit rate : 2 117 Kbps
Director : zim2001
Writing application : VirtualDubMod 1.5.10.2 (build 2540/release)
Video
ID : 0
Format : MPEG-4 Visual
Format profile : Advanced Simple@L5
Format settings, BVOP : 1
Format settings, QPel : No
Format settings, GMC : No warppoints
Format settings, Matrix : Custom
Codec ID : XVID
Codec ID/Hint : XviD
Duration : 1h 38mn
Bit rate : 1 659 Kbps
Width : 720 pixels
Height : 384 pixels
Display aspect ratio : 1.85:1
Frame rate : 25.000 fps
Color space : YUV
Chroma subsampling : 4:2:0
Bit depth : 8 bits
Scan type : Progressive
Compression mode : Lossy
Bits/(Pixel*Frame) : 0.240
Stream size : 1.14 GiB (78%)
Writing library : XviD 1.2.1 (UTC 2008-12-04)
Audio
ID : 1
Format : AC-3
Format/Info : Audio Coding 3
Mode extension : CM (complete main)
Format settings, Endianness : Big
Codec ID : 2000
Duration : 1h 38mn
Bit rate mode : Constant
Bit rate : 448 Kbps
Channel count : 6 channels
Channel positions : Front: L C R, Side: L R, LFE
Sampling rate : 48.0 KHz
Bit depth : 16 bits
Compression mode : Lossy
Stream size : 316 MiB (21%)
Alignment : Split accross interleaves
Interleave, duration : 40 ms (1.00 video frame)
Interleave, preload duration : 500 ms

Скриншот c названием фильма

Скриншоты

[cybertorrent.ru].t511.torrent 
Торрент: Зарегистрирован [ 2018-02-15 15:48 ] · 91AE7366A76B0F3011A96AD2072E17EB56593260

Скачать .torrent

Скачать

15 KB

Статус: проверено
Скачан: 0 раз
Размер: 1,46 GB
Профиль [ЛС]
Показать сообщения:    

Текущее время: 23-Май 16:37

Часовой пояс: UTC ± 0



Вы не можете начинать темы
Вы не можете отвечать на сообщения
Вы не можете редактировать свои сообщения
Вы не можете удалять свои сообщения
Вы не можете голосовать в опросах
Вы не можете прикреплять файлы к сообщениям
Вы можете скачивать файлы