Статистика раздачи
Размер:  1,51 GB   |    Зарегистрирован:  4 месяца 27 дней   |    Скачан:  0 раз

Полного источника не было: Никогда

 
   
 
 

Симка ®

Пол:
Не указан
Стаж:
7 месяцев 11 дней
Сообщений:
73

Копилка (2 серии)- Жанр: комедия
Год выпуска: 1980
Продолжительность: 02:14:11-Режиссёры: Михаил Григорьев, Владимир Савельев-В ролях:
Роман Ткачук, Игорь Дмитриев, Михаил Светин, Людмила Аринина, Григорий Абрикосов, Вера Новикова, Юрий Нифонтов, Анатолий Ромашин, Эрнест Романов, Анатолий Хостикоев, Зиновий Гердт, Лев Перфило
Описание:
По мотивам водевиля Э. Лабиша. Провинциальный рантье Шамбурси со своей семьей и друзьями приезжает в город с целью весело прокутить карточные выигрыши, откладывавшиеся в течение года в копилку. На долю героев фильма выпадает немало веселых приключений.-Исходник | Сэмпл | Кинопоиск-Качество видео: SATRip-AVC, спасибо Cheef mate за исходник.
Формат видео: MKV
Видео: x264: (High@L4.1); 537@762x570, Display aspect ratio 1.337:1, 25.000 fps, 1421 Kbps
Аудио: AC-3; 16 bits 48 Khz; 2.0ch 192 Kbps; CBR

Сравнение

* Непривычно много рассыпаний в записи. Почти все в первой серии, видно была гроза. Во второй отловил всего одно,
те, что отловил, исправил.


** Сравнение со скринером.
http://cybertorrent.ru/viewtopic.php?t=1509816


MediaInfo

x264 log

avs [info]: 536x570p 64:45 @ 25/1 fps (cfr)
x264 [info]: using SAR=64/45
x264 [info]: using cpu capabilities: MMX2 SSE2Fast SSSE3 SSE4.2
x264 [info]: profile High, level 4.1
x264 [info]: frame I:1045 Avg QP:18.74 size: 38373
x264 [info]: frame P:48516 Avg QP:21.06 size: 14665
x264 [info]: frame B:151730 Avg QP:23.88 size: 4471
x264 [info]: consecutive B-frames: 1.4% 2.0% 11.6% 44.1% 16.6% 21.5% 1.8% 0.6% 0.2% 0.1%
x264 [info]: mb I I16..4: 2.3% 81.4% 16.3%
x264 [info]: mb P I16..4: 0.3% 10.2% 2.0% P16..4: 43.3% 25.5% 17.1% 0.6% 0.1% skip: 1.0%
x264 [info]: mb B I16..4: 0.0% 0.8% 0.2% B16..8: 40.7% 13.4% 3.4% direct: 7.0% skip:34.4% L0:36.4% L1:37.6% BI:26.0%
x264 [info]: 8x8 transform intra:80.6% inter:72.4%
x264 [info]: direct mvs spatial:100.0% temporal:0.0%
x264 [info]: coded y,uvDC,uvAC intra: 94.0% 86.6% 55.1% inter: 28.4% 27.6% 2.1%
x264 [info]: i16 v,h,dc,p: 33% 11% 11% 45%
x264 [info]: i8 v,h,dc,ddl,ddr,vr,hd,vl,hu: 23% 10% 4% 7% 10% 15% 8% 14% 9%
x264 [info]: i4 v,h,dc,ddl,ddr,vr,hd,vl,hu: 22% 6% 2% 8% 13% 18% 10% 13% 8%
x264 [info]: i8c dc,h,v,p: 32% 18% 33% 18%
x264 [info]: Weighted P-Frames: Y:22.7% UV:11.8%
x264 [info]: ref P L0: 40.7% 16.7% 15.4% 5.7% 4.7% 3.2% 3.1% 1.6% 1.6% 1.2% 1.3% 1.0% 1.1% 0.9% 1.0% 0.7%
x264 [info]: ref B L0: 84.1% 7.0% 2.5% 1.5% 1.0% 0.9% 0.7% 0.5% 0.4% 0.4% 0.3% 0.3% 0.2% 0.2% 0.1%
x264 [info]: ref B L1: 98.0% 2.0%
x264 [info]: kb/s:1420.77
-General
Unique ID : 229393342055341128657957887710373059210 (0xAC938CF7727B477D93C94804DC239A8A)
Complete name : Копилка.1980.mkv
Format : Matroska
Format version : Version 2
File size : 1.51 GiB
Duration : 2 h 14 min
Overall bit rate : 1 614 kb/s
Encoded date : UTC 2018-04-26 10:45:55
Writing application : mkvmerge v7.8.0 ('River Man') 32bit built on Mar 27 2015 16:18:02
Writing library : libebml v1.3.1 + libmatroska v1.4.2
Video
ID : 1
Format : AVC
Format/Info : Advanced Video Codec
Format profile : High@L4.1
Format settings, CABAC : Yes
Format settings, ReFrames : 16 frames
Codec ID : V_MPEG4/ISO/AVC
Duration : 2 h 14 min
Bit rate : 1 390 kb/s
Width : 536 pixels
Height : 570 pixels
Display aspect ratio : 4:3
Frame rate mode : Constant
Frame rate : 25.000 FPS
Color space : YUV
Chroma subsampling : 4:2:0
Bit depth : 8 bits
Scan type : Progressive
Bits/(Pixel*Frame) : 0.182
Stream size : 1.30 GiB (86%)
Title : Копилка.1980
Writing library : x264 core 152 r2851kMod ba24899
Encoding settings : cabac=1 / ref=16 / deblock=1:-2:-2 / analyse=0x3:0x133 / me=umh / subme=10 / psy=1 / fade_compensate=0.00 / psy_rd=1.00:0.10 / mixed_ref=1 / me_range=24 / chroma_me=1 / trellis=2 / 8x8dct=1 / cqm=0 / deadzone=21,11 / fast_pskip=1 / chroma_qp_offset=-3 / threads=12 / lookahead_threads=2 / sliced_threads=0 / nr=0 / decimate=1 / interlaced=0 / bluray_compat=0 / constrained_intra=0 / bframes=9 / b_pyramid=2 / b_adapt=2 / b_bias=0 / direct=3 / weightb=1 / open_gop=0 / weightp=2 / keyint=250 / keyint_min=25 / scenecut=40 / intra_refresh=0 / rc_lookahead=60 / rc=crf / mbtree=0 / crf=18.0000 / qcomp=0.60 / qpmin=0 / qpmax=69 / qpstep=4 / vbv_maxrate=62500 / vbv_bufsize=78125 / crf_max=0.0 / nal_hrd=none / filler=0 / ip_ratio=1.50 / pb_ratio=1.30 / aq=1:0.80
Language : Russian
Default : Yes
Forced : No
Color range : Limited
Color primaries : BT.601 PAL
Transfer characteristics : BT.470 System B, BT.470 System G
Matrix coefficients : BT.601
Audio
ID : 2
Format : AC-3
Format/Info : Audio Coding 3
Mode extension : CM (complete main)
Format settings, Endianness : Big
Codec ID : A_AC3
Duration : 2 h 14 min
Bit rate mode : Constant
Bit rate : 192 kb/s
Channel(s) : 2 channels
Channel positions : Front: L R
Sampling rate : 48.0 kHz
Frame rate : 31.250 FPS (1536 spf)
Compression mode : Lossy
Stream size : 184 MiB (12%)
Title : AC-3; 16 bits 48 Khz; 2.0ch 192 Kbps; CBR
Language : Russian
Default : Yes
Forced : No
Menu
00:00:00.000 : ru:1 серия
01:10:36.080 : ru:2 серия

Скриншоты

[cybertorrent.ru].t51103.torrent 
Торрент: Зарегистрирован [ 2018-04-29 02:44 ] · 1F5DBFE93360BCA726A992051417737B9BF325A2

Скачать .torrent

Скачать

16 KB

Статус: проверено
Скачан: 0 раз
Размер: 1,51 GB
Профиль [ЛС]
Показать сообщения:    

Текущее время: 26-Сен 11:05

Часовой пояс: UTC ± 0



Вы не можете начинать темы
Вы не можете отвечать на сообщения
Вы не можете редактировать свои сообщения
Вы не можете удалять свои сообщения
Вы не можете голосовать в опросах
Вы не можете прикреплять файлы к сообщениям
Вы можете скачивать файлы
Torrents24.ru открытый BitTorrent Torrents24.pl открытый BitTorrent CyberTorrent.ru открытый BitTorrent BtList.ru рейтинг BitTorrent трекеров Яндекс.Метрика