Статистика раздачи
Размер:  1,36 GB   |    Зарегистрирован:  4 месяца 21 день   |    Скачан:  0 раз

Полного источника не было: Никогда

 
   
 
 

Симка ®

Пол:
Не указан
Стаж:
7 месяцев 4 дня
Сообщений:
73

За нами Москва Жанр: военный
Студия: Казахфильм
Продолжительность: 01:23:31
Год выпуска: 1967-Режиссёр: Мажит Бегалин
В ролях: Куатбай Абдреимов, Владлен Давыдов, Анатолий Голик, Каукен Кенжетаев, Вячеслав Подвиг, Всеволод Санаев, Асанбек Умуралиев, Людмила Иванова, Олег Мокшанцев, Иван Савкин-Описание: Фильм посвящен легендарной панфиловской дивизии, которая сражалась на волоколамском направлении под Москвой в 1941 году, остановила фашистов и перешла в контрнаступление.-
Семпл: https://www.sendspace.com/file/xk0q5y-Качество: SATRip [Ел Арна] (эфир 26.04.2018)
Формат: AVI
Видео: XviD 64, 640x304, 25 fps, ~2136 kbps, 0.439 bit/pixel
Аудио: [RUS] AC3, 48 kHz, 2 ch, 192 kbps

Mediainfo

Общее
Полное имя : F:\За нами Москва (1967) [SATRip].avi
Формат : AVI
Формат/Информация : Audio Video Interleave
Размер файла : 1,36 Гбайт
Продолжительность : 1 ч. 23 м.
Общий поток : 2337 Кбит/сек
Программа кодирования : VirtualDubMod 1.5.10.2 (build 2540/release)
Библиотека кодирования : VirtualDubMod build 2540/release
Видео
Идентификатор : 0
Формат : MPEG-4 Visual
Профиль формата : Advanced Simple@L5
Параметр BVOP формата : 2
Параметр QPel формата : Нет
Параметр GMC формата : Без точки перехода
Параметр матрицы формата : Default (H.263)
Идентификатор кодека : XVID
Идентификатор кодека/Подсказка : XviD
Продолжительность : 1 ч. 23 м.
Битрейт : 2136 Кбит/сек
Ширина : 640 пикселей
Высота : 304 пикселя
Соотношение сторон : 2,105
Частота кадров : 25,000 кадров/сек
Цветовое пространство : YUV
Субдискретизация насыщенности : 4:2:0
Битовая глубина : 8 бит
Тип развёртки : Прогрессивная
Метод сжатия : С потерями
Бит/(Пиксели*Кадры) : 0.439
Размер потока : 1,25 Гбайт (91%)
Библиотека кодирования : XviD 67
Аудио
Идентификатор : 1
Формат : AC-3
Формат/Информация : Audio Coding 3
Параметр Endianness формата : Big
Идентификатор кодека : 2000
Продолжительность : 1 ч. 23 м.
Вид битрейта : Постоянный
Битрейт : 192 Кбит/сек
Каналы : 2 канала
Расположение каналов : Front: L R
Частота : 48,0 КГц
Частота кадров : 31,250 кадров/сек (1536 SPF)
Битовая глубина : 16 бит
Метод сжатия : С потерями
Размер потока : 115 Мбайт (8%)
Выравнивание : Разделение по промежуткам
Продолжительность промежутка : 40 мс. (1,00 видеокадр)
Время предзагрузки промежутка : 500 мс.
ServiceKind/String : Complete Main

Скриншоты

[cybertorrent.ru].t51121.torrent 
Торрент: Зарегистрирован [ 2018-04-29 02:44 ] · CE9F0661DE56A320174C3AE1F2D0DCB15DCD3B0E

Скачать .torrent

Скачать

14 KB

Статус: проверено
Скачан: 0 раз
Размер: 1,36 GB
Профиль [ЛС]
Показать сообщения:    

Текущее время: 20-Сен 09:39

Часовой пояс: UTC ± 0



Вы не можете начинать темы
Вы не можете отвечать на сообщения
Вы не можете редактировать свои сообщения
Вы не можете удалять свои сообщения
Вы не можете голосовать в опросах
Вы не можете прикреплять файлы к сообщениям
Вы можете скачивать файлы
Torrents24.ru открытый BitTorrent Torrents24.pl открытый BitTorrent CyberTorrent.ru открытый BitTorrent BtList.ru рейтинг BitTorrent трекеров Яндекс.Метрика