Статистика раздачи
Размер:  2,81 GB   |    Зарегистрирован:  2 месяца 21 день   |    Скачан:  0 раз

Полного источника не было: Никогда

 
   
 
 

Симка ®

Пол:
Не указан
Стаж:
5 месяцев 4 дня
Сообщений:
73

Лицо на мишени
Жанр: детектив
Год выпуска: 1978
Продолжительность: 01:09:54+01:05:52
Режиссёр: Альмантас Грикявичюс
В ролях: Повилас Гайдис, Регимантас Адомайтис, Юозас Киселюс, Витаутас Паукште, Антанас Габренас, Арнас Росенас, Лаймонас Норейка, Юрис Стренга, Стяпонас Космаускас, Эдгарас Савицкис, Вальдас Ятаутис, Гедиминас Гирдвайнис, Витаутас Томкус, Нийоле Ожелите
Описание: Телевизионный художественный фильм в двух сериях. Литовская киностудия
Психологический детектив по мотивам новелл Г. К. Честертона. Конец 19-го века. В заброшенном замке собирается тайное масонское общество. Заседание прерывается убийством хозяина замка. Впрочем, выясняется, что убили двойника. Но за этим следует новая череда убийств.
Сэмпл: https://yadi.sk/d/xMBanYkh3UsywR
Качество видео: DVB
Формат видео: TS
Видео: Mpeg Video AVC, 720x576, 16:9, ~2980 Кбит/сек, 25 кадров/сек
Аудио: Mpeg Audio MP2, 192 kbps, 48Khz, 2Ch

MediaInfo

Общее
Идентификатор : 1 (0x1)
Полное имя : H:\Лицо на мишени 1979(ЛК)\Лицо на мишени 1серия-Культура.ts
Формат : MPEG-TS
Размер файла : 1,44 Гбайт
Продолжительность : 1 ч. 9 м.
Режим общего битрейта : Переменный
Общий поток : 2955 Кбит/сек
Видео
Идентификатор : 1061 (0x425)
Идентификатор меню : 1060 (0x424)
Формат : AVC
Формат/Информация : Advanced Video Codec
Профиль формата : Main@L3
Настройки формата : CABAC / 3 Ref Frames
Параметр CABAC формата : Да
Параметр RefFrames формата : 3 кадра
Параметр GOP формата : M=4, N=28
Идентификатор кодека : 27
Продолжительность : 1 ч. 9 м.
Битрейт : 2615 Кбит/сек
Ширина : 720 пикселей
Высота : 576 пикселей
Соотношение сторон : 16:9
Частота кадров : 25,000 кадров/сек
Стандарт вещания : Component
Цветовое пространство : YUV
Субдискретизация насыщенности : 4:2:0
Битовая глубина : 8 бит
Тип развёртки : Чересстрочная
Метод сохранения типа развёртки : Раздельные поля
Порядок развёртки : Верхнее поле первое
Бит/(Пиксели*Кадры) : 0.252
Размер потока : 1,28 Гбайт (88%)
Цветовой диапазон : Limited
Основные цвета : BT.601 PAL
Характеристики трансфера : BT.470 System B/G
Коэффициенты матрицы : BT.470 System B/G
Аудио
Идентификатор : 1062 (0x426)
Идентификатор меню : 1060 (0x424)
Формат : MPEG Audio
Версия формата : Version 1
Профиль формата : Layer 2
Идентификатор кодека : 3
Продолжительность : 1 ч. 9 м.
Вид битрейта : Постоянный
Битрейт : 192 Кбит/сек
Каналы : 2 канала
Частота : 48,0 КГц
Частота кадров : 41,667 кадра/сек (1152 SPF)
Метод сжатия : С потерями
Задержка видео : -40 мс.
Размер потока : 96,0 Мбайт (6%)
Язык : English

Скриншот c названием фильма

Скриншоты

[cybertorrent.ru].t51136.torrent 
Торрент: Зарегистрирован [ 2018-04-29 02:44 ] · 41A5A3531D628720A34051E53B34072BD5BB2C39

Скачать .torrent

Скачать

15 KB

Статус: проверено
Скачан: 0 раз
Размер: 2,81 GB
Профиль [ЛС]
Показать сообщения:    

Текущее время: 20-Июл 04:22

Часовой пояс: UTC ± 0



Вы не можете начинать темы
Вы не можете отвечать на сообщения
Вы не можете редактировать свои сообщения
Вы не можете удалять свои сообщения
Вы не можете голосовать в опросах
Вы не можете прикреплять файлы к сообщениям
Вы можете скачивать файлы