BitTorrent клиенты



(Acoustic guitar) [CD] Pino Forastiere - Rag Tap Boom - 2008, FLAC (tracks+.cue), lossless

Ответить на тему
Статистика раздачи
Размер:  229 MB   |    Зарегистрирован:  6 месяцев 9 дней   |    Скачан:  1 раз

Полного источника не было: 2 месяца

 
   
 
 
Автор Сообщение

maria ®

Пол: Не указан

Стаж: 1 год

Сообщений: 438

Создавать темы 14-Авг-2018 15:43

[Цитировать]

Pino Forastiere / Rag Tap Boom
Жанр: Acoustic guitar
Носитель: CD
Страна-производитель диска (релиза): US
Год издания: 2008
Издатель (лейбл): Candyrat Records
Аудиокодек: FLAC (*.flac)
Тип рипа: tracks+.cue
Битрейт аудио: lossless
Продолжительность: 00:44:38
Источник (релизер): what.cd
Наличие сканов в содержимом раздачи: нет
Треклист:
1 Non Sense 3:45
2 Seagull B 3:37
3 November 3:53
4 Rag Tap Boom 3:19
5 Last Minute 3:29
6 Hidden 7 3:29
7 Q.B. 3:17
8 Wild Parking 4:40
9 For You 3:53
10 Complicated Night 4:11
11 Thumb 2:19
12 Uni-Verse 2:33
13 Piccolo Tema 2:13

Лог создания рипа

Exact Audio Copy V1.0 beta 4 from 7. December 2014
EAC extraction logfile from 15. April 2015, 19:30
Forastiere / Rag Tap Boom
Used drive : Optiarc DVD RW AD-5260S Adapter: 1 ID: 0
Read mode : Secure
Utilize accurate stream : Yes
Defeat audio cache : Yes
Make use of C2 pointers : No
Read offset correction : 48
Overread into Lead-In and Lead-Out : No
Fill up missing offset samples with silence : Yes
Delete leading and trailing silent blocks : No
Null samples used in CRC calculations : Yes
Used interface : Native Win32 interface for Win NT & 2000
Gap handling : Appended to previous track
Used output format : User Defined Encoder
Selected bitrate : 1024 kBit/s
Quality : High
Add ID3 tag : No
Command line compressor : C:\Program Files (x86)\Exact Audio Copy\FLAC\FLAC.EXE
Additional command line options : -8 -V -T "ARTIST=%artist%" -T "TITLE=%title%" -T "ALBUM=%albumtitle%" -T "DATE=%year%" -T "TRACKNUMBER=%tracknr%" -T "GENRE=%genre%" -T "PERFORMER=%albuminterpret%" -T "COMPOSER=%composer%" %haslyrics%--tag-from-file=LYRICS="%lyricsfile%"%haslyrics% -T "ALBUMARTIST=%albumartist%" -T "DISCNUMBER=%cdnumber%" -T "TOTALDISCS=%totalcds%" -T "TOTALTRACKS=%numtracks%" -T "COMMENT=%comment%" %source% -o %dest%
TOC of the extracted CD
Track | Start | Length | Start sector | End sector
---------------------------------------------------------
1 | 0:00.00 | 3:45.20 | 0 | 16894
2 | 3:45.20 | 3:36.65 | 16895 | 33159
3 | 7:22.10 | 3:53.15 | 33160 | 50649
4 | 11:15.25 | 3:18.47 | 50650 | 65546
5 | 14:33.72 | 3:29.25 | 65547 | 81246
6 | 18:03.22 | 3:28.53 | 81247 | 96899
7 | 21:32.00 | 3:17.37 | 96900 | 111711
8 | 24:49.37 | 4:39.45 | 111712 | 132681
9 | 29:29.07 | 3:53.10 | 132682 | 150166
10 | 33:22.17 | 4:11.15 | 150167 | 169006
11 | 37:33.32 | 2:18.70 | 169007 | 179426
12 | 39:52.27 | 2:32.63 | 179427 | 190889
13 | 42:25.15 | 2:13.00 | 190890 | 200864
Track 1
Filename H:\EAC\Pino Forastiere - Rag Tap Boom (2003)\01 - Nonsense.wav
Pre-gap length 0:00:02.00
Peak level 99.3 %
Extraction speed 2.4 X
Track quality 100.0 %
Test CRC E24D984F
Copy CRC E24D984F
Accurately ripped (confidence 2) [8F099FF0] (AR v2)
Copy OK
Track 2
Filename H:\EAC\Pino Forastiere - Rag Tap Boom (2003)\02 - Seagull B.wav
Peak level 99.2 %
Extraction speed 2.6 X
Track quality 100.0 %
Test CRC 61BF0582
Copy CRC 61BF0582
Accurately ripped (confidence 2) [4890B965] (AR v2)
Copy OK
Track 3
Filename H:\EAC\Pino Forastiere - Rag Tap Boom (2003)\03 - November.wav
Peak level 99.3 %
Extraction speed 2.8 X
Track quality 100.0 %
Test CRC 6CE7949C
Copy CRC 6CE7949C
Accurately ripped (confidence 2) [2A1CA846] (AR v2)
Copy OK
Track 4
Filename H:\EAC\Pino Forastiere - Rag Tap Boom (2003)\04 - Rag Tap Boom.wav
Peak level 99.2 %
Extraction speed 3.0 X
Track quality 100.0 %
Test CRC 8B35875E
Copy CRC 8B35875E
Accurately ripped (confidence 2) [79C32504] (AR v2)
Copy OK
Track 5
Filename H:\EAC\Pino Forastiere - Rag Tap Boom (2003)\05 - Last Minute.wav
Peak level 99.2 %
Extraction speed 3.2 X
Track quality 100.0 %
Test CRC 01199AE9
Copy CRC 01199AE9
Accurately ripped (confidence 2) [9BC0C90C] (AR v2)
Copy OK
Track 6
Filename H:\EAC\Pino Forastiere - Rag Tap Boom (2003)\06 - Hidden 7.wav
Peak level 99.2 %
Extraction speed 3.3 X
Track quality 100.0 %
Test CRC DAC7606F
Copy CRC DAC7606F
Accurately ripped (confidence 2) [3D451DC4] (AR v2)
Copy OK
Track 7
Filename H:\EAC\Pino Forastiere - Rag Tap Boom (2003)\07 - Q.B..wav
Peak level 99.2 %
Extraction speed 3.4 X
Track quality 100.0 %
Test CRC 3F4DE622
Copy CRC 3F4DE622
Accurately ripped (confidence 2) [E0C35AB8] (AR v2)
Copy OK
Track 8
Filename H:\EAC\Pino Forastiere - Rag Tap Boom (2003)\08 - Wild Parking.wav
Peak level 99.2 %
Extraction speed 3.8 X
Track quality 100.0 %
Test CRC 1EFCB526
Copy CRC 1EFCB526
Accurately ripped (confidence 2) [A8AF2B8C] (AR v2)
Copy OK
Track 9
Filename H:\EAC\Pino Forastiere - Rag Tap Boom (2003)\09 - For You.wav
Peak level 99.2 %
Extraction speed 3.9 X
Track quality 100.0 %
Test CRC 8500C9DB
Copy CRC 8500C9DB
Accurately ripped (confidence 2) [27885410] (AR v2)
Copy OK
Track 10
Filename H:\EAC\Pino Forastiere - Rag Tap Boom (2003)\10 - Complicated Night.wav
Peak level 99.2 %
Extraction speed 4.1 X
Track quality 100.0 %
Test CRC B880F898
Copy CRC B880F898
Accurately ripped (confidence 2) [0E557557] (AR v2)
Copy OK
Track 11
Filename H:\EAC\Pino Forastiere - Rag Tap Boom (2003)\11 - Thumb.wav
Peak level 99.2 %
Extraction speed 3.8 X
Track quality 100.0 %
Test CRC 43426B34
Copy CRC 43426B34
Accurately ripped (confidence 2) [8B3BB355] (AR v2)
Copy OK
Track 12
Filename H:\EAC\Pino Forastiere - Rag Tap Boom (2003)\12 - Universe.wav
Peak level 99.2 %
Extraction speed 4.0 X
Track quality 100.0 %
Test CRC 69ACE30F
Copy CRC 69ACE30F
Accurately ripped (confidence 2) [D056B3A8] (AR v2)
Copy OK
Track 13
Filename H:\EAC\Pino Forastiere - Rag Tap Boom (2003)\13 - Piccolo Tema.wav
Peak level 99.2 %
Extraction speed 4.0 X
Track quality 100.0 %
Test CRC 86E301FA
Copy CRC 86E301FA
Accurately ripped (confidence 2) [B8BC0D73] (AR v2)
Copy OK
All tracks accurately ripped
No errors occurred
End of status report
---- CUETools DB Plugin V2.1.4
[CTDB TOCID: DezMSrMZrVWrYnId3v92h3U_NWw-] found
Submit result: DezMSrMZrVWrYnId3v92h3U_NWw- has been confirmed
Track | CTDB Status
1 | (2/2) Accurately ripped
2 | (2/2) Accurately ripped
3 | (2/2) Accurately ripped
4 | (2/2) Accurately ripped
5 | (2/2) Accurately ripped
6 | (2/2) Accurately ripped
7 | (2/2) Accurately ripped
8 | (2/2) Accurately ripped
9 | (2/2) Accurately ripped
10 | (2/2) Accurately ripped
11 | (2/2) Accurately ripped
12 | (2/2) Accurately ripped
13 | (2/2) Accurately ripped
==== Log checksum 9C1B09B0F561C5F2D898C50FE0C56B1DBA4C3D4FF3FF9BBA54E2D61D13C0F681 ====

Содержание индексной карты (.CUE)

REM GENRE Acoustic
REM DATE 2003
REM DISCID B60A760D
REM COMMENT "ExactAudioCopy v1.0b4"
PERFORMER "Forastiere"
TITLE "Rag Tap Boom"
FILE "01 - Nonsense.wav" WAVE
TRACK 01 AUDIO
TITLE "Nonsense"
PERFORMER "Forastiere"
INDEX 01 00:00:00
FILE "02 - Seagull B.wav" WAVE
TRACK 02 AUDIO
TITLE "Seagull B"
PERFORMER "Forastiere"
INDEX 01 00:00:00
FILE "03 - November.wav" WAVE
TRACK 03 AUDIO
TITLE "November"
PERFORMER "Forastiere"
INDEX 01 00:00:00
FILE "04 - Rag Tap Boom.wav" WAVE
TRACK 04 AUDIO
TITLE "Rag Tap Boom"
PERFORMER "Forastiere"
INDEX 01 00:00:00
FILE "05 - Last Minute.wav" WAVE
TRACK 05 AUDIO
TITLE "Last Minute"
PERFORMER "Forastiere"
INDEX 01 00:00:00
FILE "06 - Hidden 7.wav" WAVE
TRACK 06 AUDIO
TITLE "Hidden 7"
PERFORMER "Forastiere"
INDEX 01 00:00:00
FILE "07 - Q.B..wav" WAVE
TRACK 07 AUDIO
TITLE "Q.B."
PERFORMER "Forastiere"
INDEX 01 00:00:00
FILE "08 - Wild Parking.wav" WAVE
TRACK 08 AUDIO
TITLE "Wild Parking"
PERFORMER "Forastiere"
INDEX 01 00:00:00
FILE "09 - For You.wav" WAVE
TRACK 09 AUDIO
TITLE "For You"
PERFORMER "Forastiere"
INDEX 01 00:00:00
FILE "10 - Complicated Night.wav" WAVE
TRACK 10 AUDIO
TITLE "Complicated Night"
PERFORMER "Forastiere"
INDEX 01 00:00:00
FILE "11 - Thumb.wav" WAVE
TRACK 11 AUDIO
TITLE "Thumb"
PERFORMER "Forastiere"
INDEX 01 00:00:00
FILE "12 - Universe.wav" WAVE
TRACK 12 AUDIO
TITLE "Universe"
PERFORMER "Forastiere"
INDEX 01 00:00:00
FILE "13 - Piccolo Tema.wav" WAVE
TRACK 13 AUDIO
TITLE "Piccolo Tema"
PERFORMER "Forastiere"
INDEX 01 00:00:00

Лог проверки качества

AUDIOCHECKER v2.0 beta (build 457) - by Dester - opdester@freemail.hu
~~~~~~~~~~~~~~~~~~~~~~~~~~~~~~~~~~
-=== DO NOT EDIT THIS FILE! ===-
Path: ...\Pino Forastiere - Rag Tap Boom (2003) [FLAC]
01 -=- 01 - Nonsense.flac -=- CDDA (100%)
02 -=- 02 - Seagull B.flac -=- CDDA (100%)
03 -=- 03 - November.flac -=- CDDA (100%)
04 -=- 04 - Rag Tap Boom.flac -=- CDDA (100%)
05 -=- 05 - Last Minute.flac -=- CDDA (99%)
06 -=- 06 - Hidden 7.flac -=- CDDA (100%)
07 -=- 07 - Q.B..flac -=- CDDA (100%)
08 -=- 08 - Wild Parking.flac -=- CDDA (99%)
09 -=- 09 - For You.flac -=- CDDA (99%)
10 -=- 10 - Complicated Night.flac -=- CDDA (100%)
11 -=- 11 - Thumb.flac -=- CDDA (100%)
12 -=- 12 - Universe.flac -=- CDDA (100%)
13 -=- 13 - Piccolo Tema.flac -=- CDDA (100%)
Summary 99,77% CDDA
89176676
[cybertorrent.ru].t51136.torrent 
Торрент: Зарегистрирован [ 2018-08-14 15:45 ] · 0671576B308D06E97263F3F493D97EAFA362300F

Скачать .torrent

Скачать

19 KB

Статус: проверено
Скачан: 1 раз
Размер: 229 MB
terms.php
[Профиль] [ЛС]
Показать сообщения:    
Ответить на тему

Текущее время: 23-Фев 16:17

Часовой пояс: UTC + 3



Вы не можете начинать темы
Вы не можете отвечать на сообщения
Вы не можете редактировать свои сообщения
Вы не можете удалять свои сообщения
Вы не можете голосовать в опросах
Вы не можете прикреплять файлы к сообщениям
Вы можете скачивать файлы