Статистика раздачи
Размер:  747 MB   |    Зарегистрирован:  3 месяца 12 дней   |    Скачан:  0 раз
Сидов:  2  [  0 KB/s  ]   Личеров:  6  [  0 KB/s  ]  
 
   
 
 

lopster ®

Пол:
Не указан
Стаж:
3 месяца 12 дней
Сообщений:
612

На море!
Жанр: комедия
Год выпуска: 2008
Продолжительность: 01:38:37
Режиссёр: Ярослав Чеважевский
В ролях: Ярослав Чеважевский
Алёна Бабенко
Инга Оболдина
Юрий Колокольников
Павел Деревянко
Ульяна Ворожейкина
Сюзанна Шпак
Евгения Лютая
Курт Глокцин
Бритта Шмеллинг
Описание: Две семьи с друзьями решают провести новогодние каникулы большой и шумной компанией на Канарских островах. Пока в России холодная зима, они будут наслаждаться солнцем и морем. Казалось бы, нашему туристу ничто не может помешать. Однако обстоятельства не позволят им не то что искупаться, а даже одним глазком увидеть море.
Доп. информация: https://www.kinopoisk.ru/film/na-more-2008-422939/
Сэмпл: http://sendfile.su/1396775
Качество видео: DVDRip найден в сети
Формат видео: AVI
Видео: 656x352 (1.86:1), 25 fps, XviD build 50 ~921 kbps avg, 0.16 bit/pixel
Аудио: 48 kHz, MPEG Layer 3, 2 ch, ~128.00 kbps avg

MediaInfo

General
Complete name : D:\Na.more.2009.avi
Format : AVI
Format/Info : Audio Video Interleave
File size : 747 MiB
Duration : 1h 38mn
Overall bit rate : 1 060 Kbps
Director : zim2001
Writing application : VirtualDubMod 1.5.10.2 (build 2540/release)
Video
ID : 0
Format : MPEG-4 Visual
Format profile : Advanced Simple@L5
Format settings, BVOP : 1
Format settings, QPel : No
Format settings, GMC : No warppoints
Format settings, Matrix : Custom
Codec ID : XVID
Codec ID/Hint : XviD
Duration : 1h 38mn
Bit rate : 922 Kbps
Width : 656 pixels
Height : 352 pixels
Display aspect ratio : 1.85:1
Frame rate : 25.000 fps
Color space : YUV
Chroma subsampling : 4:2:0
Bit depth : 8 bits
Scan type : Progressive
Compression mode : Lossy
Bits/(Pixel*Frame) : 0.160
Stream size : 650 MiB (87%)
Writing library : XviD 1.2.1 (UTC 2008-12-04)
Audio
ID : 1
Format : MPEG Audio
Format version : Version 1
Format profile : Layer 3
Codec ID : 55
Codec ID/Hint : MP3
Duration : 1h 38mn
Bit rate mode : Constant
Bit rate : 128 Kbps
Channel count : 2 channels
Sampling rate : 48.0 KHz
Compression mode : Lossy
Stream size : 90.3 MiB (12%)
Alignment : Aligned on interleaves
Interleave, duration : 40 ms (1.00 video frame)
Interleave, preload duration : 504 ms
Writing library : LAME3.97
Encoding settings : -m s -V 4 -q 2 -lowpass 17 -b 128

Скриншот c названием фильма

Скриншоты

[cybertorrent.ru].t512.torrent 
Торрент: Зарегистрирован [ 2018-02-15 15:48 ] · 3CA68C5EBF34E7E334B134D7FCC1439710C875F7

Скачать .torrent

Скачать

15 KB

Статус: проверено
Скачан: 0 раз
Размер: 747 MB
Профиль [ЛС]
Показать сообщения:    

Текущее время: 28-Май 03:16

Часовой пояс: UTC ± 0



Вы не можете начинать темы
Вы не можете отвечать на сообщения
Вы не можете редактировать свои сообщения
Вы не можете удалять свои сообщения
Вы не можете голосовать в опросах
Вы не можете прикреплять файлы к сообщениям
Вы можете скачивать файлы