Статистика раздачи
Размер:  4,72 GB   |    Зарегистрирован:  4 месяца 17 дней   |    Скачан:  0 раз

Полного источника не было: Никогда

 
   
 
 

Симка ®

Пол:
Не указан
Стаж:
7 месяцев 10 дней
Сообщений:
73

Последнее дело комиссара Берлаха (2 серии)
В связи с повторным показом запись трансляции ТК "5 канал СПБ" заменена на запись трансляции ТК "Культура". Преимущества - битрейт 5012 против 2437, подолжительность 01:02:43 + 01:02:57 против 01:02:28 + 01:00:14, отсутствие баннеров на видео, бОльшее наполнение кадра
Жанр: политический детектив, триллер
Год выпуска: 1971
Продолжительность: 01:02:43 + 01:02:57
Режиссёр: Василий Левин
В ролях: Николай Симонов, Андрей Попов, Николай Волков старший, Светлана Коркошко, Николай Гринько, Ева Мурниеце, Людмила Войнова-Крутикова, Артур Димитерс, Волдемар Акуратерс, Александр Бениаминов, Улдис Ваздикс, Игорь Варпа, Лидия Пупуре, Вольдемар Дудиньш, Раиса Лунёва, Арис Розенталь, Паул Буткевич
Описание: Политический детектив по мотивам повести Фридриха Дюренматта "Подозрение".
Комисар полиции Берлах (Николай Симонов) в послевоенной Швейцарии разыскивает скрывающихся нацистских преступников. Узнав, что под вымышленным именем одной из клиник руководит бывший врач-нацист, тяжело больной Берлах определяется туда на лечение...
Доп. информация: Запись потока *.ts со спутника Экспресс АМ6, 53° в.д., ремукс в *.mkv программой VideoReDo.
Качество видео: DVB
Формат видео: MKV
Видео: MPEG Video, 1024x576 (16:9), 25,000 кадров/сек, 5 012 Кбит/сек
Аудио: MPEG Audio, 48,0 КГц, 256 Кбит/сек, 2 канала
Важно. Оба имеющихся на трекере релиза продолжительностью 1 час 40 мин. В моей записи 2 серии общей продолжительностью 2 часа 5 минут 40 секунд.

Сравнение со старым файлом

http://youpicture.org/?s=2018-05-06_gr7x0rbjvzpz&n=3#.Wu6sfYhx2Uk
Битрейт рулит

MediaInfo

General
Unique ID : 301527335340303113866365682073129832476 (0xE2D80D6B49721E81B8E98D116989D01C)
Complete name : I:\НАШЕ_Л_Р\ПОСЛЕДНЕЕ ДЕЛО КОМИССАРА БЕРЛАХА\ПОСЛЕДНЕЕ ДЕЛО КОМИССАРА БЕРЛАХА 1 (Kultura 53).mkv
Format : Matroska
Format version : Version 2
File size : 2.36 GiB
Duration : 1 h 2 min
Overall bit rate mode : Variable
Overall bit rate : 5 375 kb/s
Writing application : Lavf52.64.2
Writing library : Lavf52.64.2
Video
ID : 1
Format : MPEG Video
Format version : Version 2
Format profile : Main@Main
Format settings : CustomMatrix / BVOP
Format settings, BVOP : Yes
Format settings, Matrix : Custom
Format settings, GOP : M=3, N=15
Format settings, picture st : Frame
Codec ID : V_MPEG2
Codec ID/Info : MPEG 1 or 2 Video
Duration : 1 h 2 min
Bit rate mode : Variable
Bit rate : 5 012 kb/s
Maximum bit rate : 15.0 Mb/s
Width : 720 pixels
Height : 576 pixels
Display aspect ratio : 16:9
Original display aspect rat : 16:9
Frame rate mode : Constant
Frame rate : 25.000 FPS
Standard : PAL
Color space : YUV
Chroma subsampling : 4:2:0
Bit depth : 8 bits
Scan type : Interlaced
Scan order : Top Field First
Compression mode : Lossy
Bits/(Pixel*Frame) : 0.483
Stream size : 2.20 GiB (93%)
Default : Yes
Forced : No
Audio
ID : 2
Format : MPEG Audio
Format version : Version 1
Format profile : Layer 2
Codec ID : A_MPEG/L2
Codec ID/Hint : MP2
Duration : 1 h 2 min
Bit rate mode : Constant
Bit rate : 256 kb/s
Channel(s) : 2 channels
Sampling rate : 48.0 kHz
Compression mode : Lossy
Delay relative to video : 18 ms
Stream size : 115 MiB (5%)
Language : English
Default : Yes
Forced : No
General
Unique ID : 293518846877269759859129356759055619220 (0xDCD1AC73F3D65592A48CF9C7A6BA5494)
Complete name : I:\НАШЕ_Л_Р\ПОСЛЕДНЕЕ ДЕЛО КОМИССАРА БЕРЛАХА\ПОСЛЕДНЕЕ ДЕЛО КОМИССАРА БЕРЛАХА 2 (Kultura 53).mkv
Format : Matroska
Format version : Version 2
File size : 2.36 GiB
Duration : 1 h 2 min
Overall bit rate mode : Variable
Overall bit rate : 5 375 kb/s
Writing application : Lavf52.64.2
Writing library : Lavf52.64.2
Video
ID : 1
Format : MPEG Video
Format version : Version 2
Format profile : Main@Main
Format settings : CustomMatrix / BVOP
Format settings, BVOP : Yes
Format settings, Matrix : Custom
Format settings, GOP : M=3, N=15
Format settings, picture st : Frame
Codec ID : V_MPEG2
Codec ID/Info : MPEG 1 or 2 Video
Duration : 1 h 2 min
Bit rate mode : Variable
Bit rate : 5 012 kb/s
Maximum bit rate : 15.0 Mb/s
Width : 720 pixels
Height : 576 pixels
Display aspect ratio : 16:9
Original display aspect rat : 16:9
Frame rate mode : Constant
Frame rate : 25.000 FPS
Standard : PAL
Color space : YUV
Chroma subsampling : 4:2:0
Bit depth : 8 bits
Scan type : Interlaced
Scan order : Top Field First
Compression mode : Lossy
Bits/(Pixel*Frame) : 0.483
Stream size : 2.20 GiB (93%)
Default : Yes
Forced : No
Audio
ID : 2
Format : MPEG Audio
Format version : Version 1
Format profile : Layer 2
Codec ID : A_MPEG/L2
Codec ID/Hint : MP2
Duration : 1 h 2 min
Bit rate mode : Constant
Bit rate : 256 kb/s
Channel(s) : 2 channels
Sampling rate : 48.0 kHz
Compression mode : Lossy
Delay relative to video : 18 ms
Stream size : 115 MiB (5%)
Language : English
Default : Yes
Forced : No
[cybertorrent.ru].t51281.torrent 
Торрент: Зарегистрирован [ 2018-05-08 14:28 ] · 4B5741FC0E1EB3BE3FBFA1FFE277E6FB23F14B67

Скачать .torrent

Скачать

24 KB

Статус: проверено
Скачан: 0 раз
Размер: 4,72 GB
Профиль [ЛС]
Показать сообщения:    

Текущее время: 26-Сен 10:31

Часовой пояс: UTC ± 0



Вы не можете начинать темы
Вы не можете отвечать на сообщения
Вы не можете редактировать свои сообщения
Вы не можете удалять свои сообщения
Вы не можете голосовать в опросах
Вы не можете прикреплять файлы к сообщениям
Вы можете скачивать файлы
Torrents24.ru открытый BitTorrent Torrents24.pl открытый BitTorrent CyberTorrent.ru открытый BitTorrent BtList.ru рейтинг BitTorrent трекеров Яндекс.Метрика