Статистика раздачи
Размер:  3,16 GB   |    Зарегистрирован:  4 месяца 10 дней   |    Скачан:  0 раз

Полного источника не было: Никогда

 
   
 
 

Симка ®

Пол:
Не указан
Стаж:
7 месяцев 3 дня
Сообщений:
73

Мария Магдалина
Жанр: Драма
Год выпуска: 1990
Продолжительность: 01:12:09
Режиссёр: Геннадий Воронин
В ролях: Лариса Гузеева, Мария Капицкая, Николай Макушенко, Юрий Платонов, Юрий Чекулаев, Марина Голуб, Жанна Токарская, Александра Назарова, Александр Филиппенко, Владимир Шихов
Описание: Муж героини трагически погиб в море — и теперь ее жизнь постепенно превращается в бесконечную цепь унижений. Неустроенность, невозможность защитить себя и свою дочь от повседневного грубого обмана приводят к тому, что одинокая женщина становится портовой шлюхой…
Доп. информация: Оцифровка VHS (личный архив) и получение VHSRip alenavova
Эксклюзив для rutracker.org. При размещении данного релиза на других сайтах ссылка на автора
Релиз
Сэмпл: https://yadi.sk/i/01JtEPRA3VGrsN
Качество видео: VHSRip
Формат видео: MPG
Видео: MPEG2 Video 720x576 (4:3) 25fps bit rate 6 278 kb/s
Аудио: MPEG Audio 48000Hz stereo 192kbps

MediaInfo

Мария Магдалина [by alenavova].mpg
Format : MPEG-PS
File size : 3.16 GiB
Duration : 1 h 12 min
Overall bit rate mode : Variable
Overall bit rate : 6 278 kb/s
Video
ID : 224 (0xE0)
Format : MPEG Video
Format version : Version 2
Format profile : Main@Main
Format settings, BVOP : Yes
Format settings, Matrix : Custom
Format settings, GOP : M=3, N=15
Duration : 1 h 12 min
Bit rate mode : Variable
Bit rate : 6 000 kb/s
Width : 720 pixels
Height : 576 pixels
Display aspect ratio : 4:3
Frame rate : 25.000 FPS
Standard : PAL
Color space : YUV
Chroma subsampling : 4:2:0
Bit depth : 8 bits
Scan type : Progressive
Compression mode : Lossy
Bits/(Pixel*Frame) : 0.579
Time code of first frame : 00:00:00:00
Time code source : Group of pictures header
GOP, Open/Closed : Open
GOP, Open/Closed of first fram : Closed
Stream size : 3.00 GiB (95%)
Audio
ID : 192 (0xC0)
Format : MPEG Audio
Format version : Version 1
Format profile : Layer 2
Duration : 1 h 12 min
Bit rate mode : Constant
Bit rate : 192 kb/s
Channel(s) : 2 channels
Sampling rate : 48.0 kHz
Compression mode : Lossy
Delay relative to video : 55 ms
Stream size : 99.1 MiB (3%)

Скриншоты


[cybertorrent.ru].t51287.torrent 
Торрент: Зарегистрирован [ 2018-05-08 14:28 ] · C1BBB91E02C4BCA41ED5E0ACE0B6954A07A549D4

Скачать .torrent

Скачать

16 KB

Статус: проверено
Скачан: 0 раз
Размер: 3,16 GB
Профиль [ЛС]
Показать сообщения:    

Текущее время: 18-Сен 22:07

Часовой пояс: UTC ± 0



Вы не можете начинать темы
Вы не можете отвечать на сообщения
Вы не можете редактировать свои сообщения
Вы не можете удалять свои сообщения
Вы не можете голосовать в опросах
Вы не можете прикреплять файлы к сообщениям
Вы можете скачивать файлы
Torrents24.ru открытый BitTorrent Torrents24.pl открытый BitTorrent CyberTorrent.ru открытый BitTorrent BtList.ru рейтинг BitTorrent трекеров Яндекс.Метрика