BitTorrent клиенты



Слезы солнца / Tears of the Sun (Антуан Фукуа / Antoine Fuqua) [2003, США, боевик, приключения, BDRip] AVO (Сергей Визгунов)

Ответить на тему
Статистика раздачи
Размер:  1,47 GB   |    Зарегистрирован:  6 месяцев 8 дней   |    Скачан:  0 раз

Полного источника не было: Никогда

 
   
 
 
Автор Сообщение

Ведьмочка ®

Пол: Не указан

Стаж: 1 год

Сообщений: 863

Создавать темы 15-Авг-2018 15:43

[Цитировать]

Слезы солнца / Tears of the Sun
Страна: США
Жанр: боевик, приключения
Год выпуска: 2003
Продолжительность: 02:00:55
Перевод: Авторский (одноголосый закадровый) Сергей Визгунов
Субтитры: нет
Режиссер: Антуан Фукуа / Antoine Fuqua
В ролях: Брюс Уиллис, Моника Беллуччи, Коул Хаузер, Имонн Уолкер, Джонни Месснер, Ник Чинланд, Чарльз Ингрэм, Пол Френсис, Чад Смит
Описание: Охваченная межэтнической враждой Нигерия. После переворота, учиненного мятежным генералом, правительство страны свергнуто, а демократический президент расстрелян. Подконтрольные новому лидеру повстанцы устраивают этнические чистки, безжалостно вырезая мирное население из других племен. Американских граждан, задержавшихся в зоне конфликта, спешно эвакуирует специально присланный авианосец. Усилиями бравых спецназовцев посол и советники уже спасены, однако лейтенант Уолтерс получает новый приказ. В нигерийских джунглях остается доктор Лена Кендрикс, сотрудница гуманитарной миссии, помогающая местным крестьянам. Успешно десантировавшись в африканскую деревеньку, отряд Уолтерса находит врача-волонтера, но отважная женщина отказывается эвакуироваться. Кендрикс требует, чтобы коммандос защитили безоружное племя, которому угрожают боевики. Нарушая приказ, лейтенант изменяет план операции, соглашаясь сопровождать беженцев до камерунской границы....
Доп. информация: Выражаю огромную благодарность Нордеру за синхронизацию звуковой дорожки. За дорогу благодарим Nosferatu

Сэмпл: http://multi-up.com/1206260
Качество видео: BDRip (Исходник Blu-Ray, 1080p)
Формат видео: AVI

Видео: XviD, 720x304, (2,35:1), 23,976 fps, 1542 Кбит/с, 8 бит, 0.29 bit/pixel
Аудио: Русский (АС3, 2 ch (Front: L R), 48,0 KHz, 192 Kbps

MediaInfo

Общее
Полное имя : H:\Фильмы на трекер\Слезы солнца (боевик, приключения 2003 год).avi
Формат : AVI
Формат/Информация : Audio Video Interleave
Размер файла : 1,47 Гбайт
Продолжительность : 2 ч. 0 м.
Общий поток : 1743 Кбит/сек
Программа кодирования : VirtualDubMod 1.5.10.3 | www.virtualdub-fr.org || (build 2550/release)
Библиотека кодирования : VirtualDubMod build 2550/release
Видео
Идентификатор : 0
Формат : MPEG-4 Visual
Профиль формата : Advanced Simple@L5
Параметр BVOP формата : 2
Параметр QPel формата : Нет
Параметр GMC формата : Без точки перехода
Параметр матрицы формата : Выборочная
Идентификатор кодека : XVID
Идентификатор кодека/Подсказка : XviD
Продолжительность : 2 ч. 0 м.
Битрейт : 1542 Кбит/сек
Ширина : 720 пикселей
Высота : 304 пикселя
Соотношение сторон : 2,35:1
Частота кадров : 23,976 (23976/1000) кадра/сек
Цветовое пространство : YUV
Субдискретизация насыщенности : 4:2:0
Битовая глубина : 8 бит
Тип развёртки : Прогрессивная
Метод сжатия : С потерями
Бит/(Пиксели*Кадры) : 0.294
Размер потока : 1,30 Гбайт (88%)
Библиотека кодирования : XviD 73
Аудио
Идентификатор : 1
Формат : AC-3
Формат/Информация : Audio Coding 3
Расширение режима : CM (complete main)
Параметр Endianness формата : Big
Идентификатор кодека : 2000
Продолжительность : 2 ч. 0 м.
Вид битрейта : Постоянный
Битрейт : 192 Кбит/сек
Каналы : 2 канала
Расположение каналов : Front: L R
Частота : 48,0 КГц
Частота кадров : 31,250 кадров/сек (1536 spf)
Метод сжатия : С потерями
Размер потока : 166 Мбайт (11%)
Выравнивание : Разделение по промежуткам
Продолжительность промежутка : 42 мс. (1,00 видеокадр)
Время предзагрузки промежутка : 500 мс.

Скриншот c названием фильма

Скриншоты

[cybertorrent.ru].t51287.torrent 
Торрент: Зарегистрирован [ 2018-08-15 15:45 ] · DB7B4802C68B9A7C5098A47ED686D7E923FCDE34

Скачать .torrent

Скачать

15 KB

Статус: проверено
Скачан: 0 раз
Размер: 1,47 GB
terms.php
[Профиль] [ЛС]
Показать сообщения:    
Ответить на тему

Текущее время: 23-Фев 16:45

Часовой пояс: UTC + 3



Вы не можете начинать темы
Вы не можете отвечать на сообщения
Вы не можете редактировать свои сообщения
Вы не можете удалять свои сообщения
Вы не можете голосовать в опросах
Вы не можете прикреплять файлы к сообщениям
Вы можете скачивать файлы