Статистика раздачи
Размер:  2,18 GB   |    Зарегистрирован:  4 месяца 15 дней   |    Скачан:  0 раз

Полного источника не было: Никогда

 
   
 
 

Симка ®

Пол:
Не указан
Стаж:
7 месяцев 8 дней
Сообщений:
73

Без семьи (2 серии)- Жанр: приключения
Год выпуска: 1984
Продолжительность: 02:33:33-Режиссёр: Владимир Бортко-В ролях:
Александр Васильев, Сос Саркисян, Ян Хвилер, Елена Соловей, Эугения Плешките, Леонид Дьячков, Юстина Ширвинскайте, Владимир Татосов, Юрий Эллер, Эрнст Романов, Валентин Букин, Анатолий Сливников, Зиновий Гердт, Юрий Горобец, Тамара Уржумова, Юрий Васильев, Валентина Панина, Арсений Архипенко, Регина Варнайте, Валентин Дикуль, Евгений Филатов
Описание:
Телефильм по мотивам одноименной повести Гектора Мало. Действие происходит в XIX веке во Франции. Мальчик Реми скитается с бродячим цирком по разным городам. Бродячая жизнь многому научила ребенка, а дружба и поддержка тех, с кем свела его судьба, помогли перенести все испытания...-Исходник | Сэмпл | Кинопоиск-Качество видео: SATRip-AVC, спасибо Cheef mate за исходник.
Формат видео: MKV
Видео: x264 (High@L4.1); 714@761x570 25.000 fps; Display aspect ratio: 1.335:1; 1839 Kbps
Аудио: AC-3; 16 bits 48 Khz; 2.0ch 192 Kbps; CBR

MediaInfo

x264 log

avs [info]: 714x570p 16:15 @ 25/1 fps (cfr)
x264 [info]: using SAR=16/15
x264 [info]: using cpu capabilities: MMX2 SSE2Fast SSSE3 SSE4.2
x264 [info]: profile High, level 4.1
x264 [info]: frame I:1313 Avg QP:16.35 size: 55423
x264 [info]: frame P:51701 Avg QP:19.01 size: 21327
x264 [info]: frame B:177334 Avg QP:20.92 size: 5315
x264 [info]: consecutive B-frames: 2.0% 3.2% 8.7% 22.2% 14.2% 43.5% 4.1% 1.1% 0.6% 0.2% 0.1%
x264 [info]: mb I I16..4: 1.1% 82.6% 16.2%
x264 [info]: mb P I16..4: 0.1% 6.1% 0.7% P16..4: 34.7% 40.2% 16.1% 1.7% 0.1% skip: 0.4%
x264 [info]: mb B I16..4: 0.0% 0.4% 0.1% B16..8: 35.0% 20.8% 3.2% direct: 5.4% skip:35.2% L0:39.5% L1:43.4% BI:17.1%
x264 [info]: 8x8 transform intra:87.0% inter:61.6%
x264 [info]: direct mvs spatial:99.3% temporal:0.7%
x264 [info]: coded y,uvDC,uvAC intra: 97.8% 87.8% 62.1% inter: 29.1% 22.2% 8.0%
x264 [info]: i16 v,h,dc,p: 11% 9% 2% 78%
x264 [info]: i8 v,h,dc,ddl,ddr,vr,hd,vl,hu: 9% 6% 3% 10% 15% 15% 14% 14% 13%
x264 [info]: i4 v,h,dc,ddl,ddr,vr,hd,vl,hu: 11% 7% 2% 9% 16% 16% 15% 13% 13%
x264 [info]: i8c dc,h,v,p: 37% 22% 22% 20%
x264 [info]: Weighted P-Frames: Y:19.4% UV:5.1%
x264 [info]: ref P L0: 41.5% 13.7% 15.0% 5.6% 5.0% 3.5% 3.4% 1.8% 1.9% 1.5% 1.5% 1.2% 1.3% 1.1% 1.2% 0.8%
x264 [info]: ref B L0: 83.4% 7.1% 2.5% 1.5% 1.0% 1.0% 0.7% 0.5% 0.4% 0.4% 0.4% 0.4% 0.3% 0.2% 0.1%
x264 [info]: ref B L1: 98.0% 2.0%
x264 [info]: kb/s:1838.84
-General
Unique ID : 211583223551034205081346059846227730192 (0x9F2D72542928AA478E28518E74321F10)
Complete name : Без семьи.1984.mkv
Format : Matroska
Format version : Version 2
File size : 2.18 GiB
Duration : 2 h 33 min
Overall bit rate : 2 033 kb/s
Encoded date : UTC 2018-05-04 19:22:41
Writing application : mkvmerge v7.8.0 ('River Man') 32bit built on Mar 27 2015 16:18:02
Writing library : libebml v1.3.1 + libmatroska v1.4.2
Video
ID : 1
Format : AVC
Format/Info : Advanced Video Codec
Format profile : High@L4.1
Format settings, CABAC : Yes
Format settings, ReFrames : 16 frames
Codec ID : V_MPEG4/ISO/AVC
Duration : 2 h 33 min
Bit rate : 1 839 kb/s
Width : 714 pixels
Height : 570 pixels
Display aspect ratio : 4:3
Original display aspect rat : 4:3
Frame rate mode : Constant
Frame rate : 25.000 FPS
Color space : YUV
Chroma subsampling : 4:2:0
Bit depth : 8 bits
Scan type : Progressive
Bits/(Pixel*Frame) : 0.181
Stream size : 1.93 GiB (89%)
Title : Без семьи.1984
Writing library : x264 core 152 r2851kMod ba24899
Encoding settings : cabac=1 / ref=16 / deblock=1:-3:-1 / analyse=0x3:0x133 / me=umh / subme=11 / psy=1 / fade_compensate=0.00 / psy_rd=1.00:0.00 / mixed_ref=1 / me_range=32 / chroma_me=1 / trellis=2 / 8x8dct=1 / cqm=0 / deadzone=21,11 / fast_pskip=0 / chroma_qp_offset=-2 / threads=12 / lookahead_threads=3 / sliced_threads=0 / nr=0 / decimate=0 / interlaced=0 / bluray_compat=0 / constrained_intra=0 / bframes=10 / b_pyramid=2 / b_adapt=2 / b_bias=0 / direct=3 / weightb=1 / open_gop=0 / weightp=2 / keyint=250 / keyint_min=25 / scenecut=40 / intra_refresh=0 / rc_lookahead=60 / rc=2pass / mbtree=0 / bitrate=1839 / ratetol=1.0 / qcomp=0.60 / qpmin=0 / qpmax=69 / qpstep=4 / cplxblur=20.0 / qblur=0.5 / vbv_maxrate=62500 / vbv_bufsize=78125 / nal_hrd=none / filler=0 / ip_ratio=1.30 / pb_ratio=1.30 / aq=1:1.00
Language : Russian
Default : Yes
Forced : No
Color range : Limited
Color primaries : BT.601 PAL
Transfer characteristics : BT.470 System B, BT.470 System G
Matrix coefficients : BT.601
Audio
ID : 2
Format : AC-3
Format/Info : Audio Coding 3
Mode extension : CM (complete main)
Format settings, Endianness : Big
Codec ID : A_AC3
Duration : 2 h 33 min
Bit rate mode : Constant
Bit rate : 192 kb/s
Channel(s) : 2 channels
Channel positions : Front: L R
Sampling rate : 48.0 kHz
Frame rate : 31.250 FPS (1536 spf)
Compression mode : Lossy
Stream size : 211 MiB (9%)
Title : AC-3; 16 bits 48 Khz; 2.0ch 192 Kbps; CBR
Language : Russian
Default : Yes
Forced : No
Menu
00:00:00.000 : ru:1 серия
01:20:01.920 : ru:2 серия

Скриншоты

[cybertorrent.ru].t51315.torrent 
Торрент: Зарегистрирован [ 2018-05-08 14:28 ] · ABE617499633CC92B6BC13223241EB09274A30D9

Скачать .torrent

Скачать

11 KB

Статус: проверено
Скачан: 0 раз
Размер: 2,18 GB
Профиль [ЛС]
Показать сообщения:    

Текущее время: 24-Сен 02:06

Часовой пояс: UTC ± 0



Вы не можете начинать темы
Вы не можете отвечать на сообщения
Вы не можете редактировать свои сообщения
Вы не можете удалять свои сообщения
Вы не можете голосовать в опросах
Вы не можете прикреплять файлы к сообщениям
Вы можете скачивать файлы
Torrents24.ru открытый BitTorrent Torrents24.pl открытый BitTorrent CyberTorrent.ru открытый BitTorrent BtList.ru рейтинг BitTorrent трекеров Яндекс.Метрика