Статистика раздачи
Размер:  1,71 GB   |    Зарегистрирован:  11 дней   |    Скачан:  0 раз

Полного источника не было: Никогда

 
   
 
 

Антошка ®

Пол:
Не указан
Стаж:
3 месяца 6 дней
Сообщений:
132

Особый парень: Тупой супергерой / Special
Страна: США
Жанр: драма
Год выпуска: 2006
Продолжительность: 01:21:11
Перевод: Профессиональный (многоголосый закадровый) - CP Digital
Субтитры: нет
Оригинальная аудиодорожка: английский
Режиссер: Хэл Хаберман / Hal Haberman
В ролях: Майкл Рапапорт, Пол Блекторн, Джош Пек, Роберт Бэйкер, Джек Келер, Александра Холден, Йен Боэн, Кристофер Дарга, Майкл Шамус Уайлз, Эрик Андерсон
Описание: Лэс Франкен ведет ничем не примечательную жизнь и любит читать комиксы. Но его жизнь меняется, когда он решает принять участие в программе испытания нового антидепрессанта «Особый». Лэс обнаруживает у себя способность летать, читать чужие мысли и даже проходить сквозь стены…
Сэмпл
Качество видео: DVDRip
Формат видео: AVI
Видео: 704x384 (1.83:1), 23.976 fps, XviD build 73 ~2110 kbps avg, 0.33 bit/pixel
Аудио: 48 kHz, AC3 Dolby Digital, 3/2 (L,C,R,l,r) + LFE ch, ~448 kbps - многоголосый
Аудио: 48 kHz, AC3 Dolby Digital, 3/2 (L,C,R,l,r) + LFE ch, ~448 kbps - оригинал (отдельной дорожкой)

MediaInfo

General
Complete name : H:\Special.2006.dvdrip_[1.46]_[teko]\Special.2006.dvdrip_[1.46].avi
Format : AVI
Format/Info : Audio Video Interleave
File size : 1.46 GiB
Duration : 1h 21mn
Overall bit rate : 2 568 Kbps
Writing application : VirtualDubMod 1.5.10.3 | www.virtualdub-fr.org || (build 2550/release)
Writing library : VirtualDubMod build 2550/release
Video
ID : 0
Format : MPEG-4 Visual
Format profile : Advanced Simple@L5
Format settings, BVOP : 2
Format settings, QPel : No
Format settings, GMC : No warppoints
Format settings, Matrix : Custom
Codec ID : XVID
Codec ID/Hint : XviD
Duration : 1h 21mn
Bit rate : 2 111 Kbps
Width : 704 pixels
Height : 384 pixels
Display aspect ratio : 1.85:1
Frame rate : 23.976 (24000/1001) fps
Color space : YUV
Chroma subsampling : 4:2:0
Bit depth : 8 bits
Scan type : Progressive
Compression mode : Lossy
Bits/(Pixel*Frame) : 0.326
Stream size : 1.20 GiB (82%)
Writing library : XviD 73
Audio
ID : 1
Format : AC-3
Format/Info : Audio Coding 3
Mode extension : CM (complete main)
Format settings, Endianness : Big
Codec ID : 2000
Duration : 1h 21mn
Bit rate mode : Constant
Bit rate : 448 Kbps
Channel(s) : 6 channels
Channel positions : Front: L C R, Side: L R, LFE
Sampling rate : 48.0 KHz
Frame rate : 31.250 fps (1536 spf)
Compression mode : Lossy
Stream size : 260 MiB (17%)
Alignment : Split accross interleaves
Interleave, duration : 42 ms (1.00 video frame)
Interleave, preload duratio : 500 ms
Релиз группы:
--
[cybertorrent.ru].t51350.torrent 
Торрент: Зарегистрирован [ 2018-05-10 13:40 ] · D40146D2D72A4A711EA57EA2E802C7D48353DB26

Скачать .torrent

Скачать

18 KB

Статус: проверено
Скачан: 0 раз
Размер: 1,71 GB
Профиль [ЛС]
Показать сообщения:    

Текущее время: 21-Май 22:51

Часовой пояс: UTC ± 0



Вы не можете начинать темы
Вы не можете отвечать на сообщения
Вы не можете редактировать свои сообщения
Вы не можете удалять свои сообщения
Вы не можете голосовать в опросах
Вы не можете прикреплять файлы к сообщениям
Вы можете скачивать файлы