Статистика раздачи
Размер:  2,18 GB   |    Зарегистрирован:  3 месяца 7 дней   |    Скачан:  0 раз

Полного источника не было: Никогда

 
   
 
 

lopster ®

Пол:
Не указан
Стаж:
3 месяца 7 дней
Сообщений:
612

Салют-7 / FRA Transfer / Расширенная версия
Жанр: драма, приключения, триллер
Год выпуска: 2017
Продолжительность: 01:58:32
Режиссер: Клим Шипенко
В ролях: Владимир Вдовиченков, Павел Деревянко, Александр Самойленко, Виталий Хаев, Оксана Фандера, Любовь Аксенова, Роман Перелыгин, Полина Руденко, Александра Серебрякова, Мария Миронова, Наталья Кудряшова, Александр Ратников
Описание: Космическая станция «Салют-7», находящаяся на орбите в беспилотном режиме, неожиданно перестает отвечать на сигналы центра управления полетом. Принято решение об отправке на орбиту спасательной экспедиции. Космический экипаж должен найти «мертвую» станцию и впервые в мире провести стыковку с 20-тонной глыбой неуправляемого железа.
Космонавты понимают, что шансов вернуться на Землю у них немного. Но этот рискованный путь — единственно возможный. Они должны не только проникнуть на «Салют-7», но и оживить его. Смогут ли два человека предотвратить неминуемую катастрофу и спасти планету от падения станции? Спасательная экспедиция превращается в опасное испытание. На орбите разворачивается настоящий космический детектив. Фильм основан на реальных событиях: полет к станции «Салют-7» в 1985 году считается самым сложным полетом в истории космонавтики.
Доп. информация: "Расширенная" версия фильма по сравнению с российским изданием, длиннее на ~8 минут. Подробного сравнения в сети нет, но в первые десять минут уже можно найти отличия. Так же на нашем издании порезан кадр (см. "сравнения изданий")
Некоторые различия:
- Есть сцена где женщина видит сон, как Вдовиченков мертвый парит на корабле, потом она ему звонит и говорит что видела плохой сон
- Сцена дочки на горшке, рассуждающей про кто какает, а кто нет (Федоров читает в этот момент Советский спорт и смотрит Новости по ТВ)
- Звонок другу про аварию на Салюте из роддома
Сэмпл: http://multi-up.com/1186251
Качество видео: BDRip Исходник
Формат видео: AVI
Видео: XviD / 2169 kbps / 720x304 / 24.000 fps
Аудио: AC3 / 6 ch / 448 kbps / 48 kHz

MediaInfo

General
Complete name : J:\Torrents\Готовые релизы\Салют-7 (2017) BDRip [FRA Transfer].avi
Format : AVI
Format/Info : Audio Video Interleave
Format profile : OpenDML
File size : 2.18 GiB
Duration : 1 h 58 min
Overall bit rate : 2 629 kb/s
Writing application : VirtualDubMod 1.5.10.3 | www.virtualdub-fr.org || (build 2550/release)
Writing library : VirtualDubMod build 2550/release
Video
ID : 0
Format : MPEG-4 Visual
Format profile : Advanced Simple@L5
Format settings : BVOP2
Format settings, BVOP : 2
Format settings, QPel : No
Format settings, GMC : No warppoints
Format settings, Matrix : Default (H.263)
Codec ID : XVID
Codec ID/Hint : XviD
Duration : 1 h 58 min
Bit rate : 2 169 kb/s
Width : 720 pixels
Height : 304 pixels
Display aspect ratio : 2.35:1
Frame rate : 24.000 FPS
Color space : YUV
Chroma subsampling : 4:2:0
Bit depth : 8 bits
Scan type : Progressive
Compression mode : Lossy
Bits/(Pixel*Frame) : 0.413
Stream size : 1.80 GiB (83%)
Writing library : XviD 1.2.1 (UTC 2008-12-04)
Audio
ID : 1
Format : AC-3
Format/Info : Audio Coding 3
Codec ID : 2000
Duration : 1 h 58 min
Bit rate mode : Constant
Bit rate : 448 kb/s
Channel(s) : 6 channels
Channel positions : Front: L C R, Side: L R, LFE
Sampling rate : 48.0 kHz
Frame rate : 31.250 FPS (1536 SPF)
Bit depth : 16 bits
Compression mode : Lossy
Stream size : 380 MiB (17%)
Alignment : Split accross interleaves
Interleave, duration : 42 ms (1.00 video frame)
Interleave, preload duratio : 500 ms
Service kind : Complete Main

Cравнения изданий

WEB-DL >>>>>>>>>>>>>>>>>>>>>>>>>>>>>>>>>>>>> Blu-Ray RUS >>>>>>>>>>>>>>>>>>>>>>>>>>>>>>>>>>>>> Blu-Ray FRA



Скриншот c названием фильма

Скриншоты

[cybertorrent.ru].t514.torrent 
Торрент: Зарегистрирован [ 2018-02-15 15:48 ] · 9218658E8DC5540CFB949BF62934A14C7E383916

Скачать .torrent

Скачать

11 KB

Статус: проверено
Скачан: 0 раз
Размер: 2,18 GB
Профиль [ЛС]
Показать сообщения:    

Текущее время: 23-Май 07:24

Часовой пояс: UTC ± 0



Вы не можете начинать темы
Вы не можете отвечать на сообщения
Вы не можете редактировать свои сообщения
Вы не можете удалять свои сообщения
Вы не можете голосовать в опросах
Вы не можете прикреплять файлы к сообщениям
Вы можете скачивать файлы