Статистика раздачи
Размер:  1,05 GB   |    Зарегистрирован:  3 месяца 27 дней   |    Скачан:  0 раз

Полного источника не было: Никогда

 
   
 
 

Симка ®

Пол:
Не указан
Стаж:
7 месяцев 11 дней
Сообщений:
73

Человек-олень Жанр: драма
Студия: Казахфильм
Продолжительность: 01:06:08
Год выпуска: 1985-Режиссёр: Максим Смагулов
В ролях: Динмухамед (Димаш) Ахимов, С. Кумушалиева, Байтен Омаров, Раиса Мухамедьярова, Нуржуман Ихтымбаев-Описание: О соотношении прошлого и настоящего, всеобщего и индивидуального, о сохранении гуманного высокого начала в человеке.
Высоко в горах уединенно живет лесник Актан со своей немой тетей в покинутом людьми ауле. Неправильной и суетной кажется ему жизнь людей. Но и своя жизнь нравится ему все меньше. Столкновение с людьми, хищнически эксплуатирующими природу, заставляет Актана активно вмешиваться в жизнь.
-Семпл: https://www.sendspace.com/file/jx2s5f-Качество: DVB [Ел Арна] (эфир 11.05.2018)
Формат: MKV
Видео: AVC, 720x576 (16:9) @ 1044x576, 25 fps, ~2030 kbps, 0.196 bit/pixel
Аудио: [RUS] MP2, 48 kHz, 2 ch, 192 kbps

Mediainfo

Общее
Уникальный идентификатор : 113507641683278630980645961541594565197 (0x5564C6CF7BFFFECC1174DE3C37DECA4D)
Полное имя : F:\Человек-олень (1985) [Ел Арна].mkv
Формат : Matroska
Версия формата : Version 2
Размер файла : 1,05 Гбайт
Продолжительность : 1 ч. 6 м.
Общий поток : 2267 Кбит/сек
Программа кодирования : Lavf54.63.104
Библиотека кодирования : Lavf54.63.104
Видео
Идентификатор : 1
Формат : AVC
Формат/Информация : Advanced Video Codec
Профиль формата : High@L3
Параметр CABAC формата : Да
Параметр RefFrames формата : 3 кадра
Идентификатор кодека : V_MPEG4/ISO/AVC
Продолжительность : 1 ч. 6 м.
Битрейт : 2030 Кбит/сек
Ширина : 720 пикселей
Высота : 576 пикселей
Соотношение сторон : 16:9
Соотношение сторон в оригинале : 16:9
Режим частоты кадров : Постоянный
Частота кадров : 25,000 кадров/сек
Стандарт вещания : Component
Цветовое пространство : YUV
Субдискретизация насыщенности : 4:2:0
Битовая глубина : 8 бит
Тип развёртки : Чересстрочная
Метод сохранения типа развёртки : Раздельные поля
Порядок развёртки : Верхнее поле первое
Бит/(Пиксели*Кадры) : 0.196
Размер потока : 960 Мбайт (90%)
Default : Нет
Forced : Нет
Цветовой диапазон : Limited
Основные цвета : BT.601 PAL
Характеристики трансфера : BT.470 System B, BT.470 System G
Коэффициенты матрицы : BT.470 System B, BT.470 System G
Аудио
Идентификатор : 2
Формат : MPEG Audio
Версия формата : Version 1
Профиль формата : Layer 2
Идентификатор кодека : A_MPEG/L2
Идентификатор кодека/Подсказка : MP2
Продолжительность : 1 ч. 6 м.
Вид битрейта : Постоянный
Битрейт : 192 Кбит/сек
Каналы : 2 канала
Частота : 48,0 КГц
Метод сжатия : С потерями
Размер потока : 90,8 Мбайт (8%)
Язык : English
Default : Да
Forced : Нет

Скриншоты

[cybertorrent.ru].t51442.torrent 
Торрент: Зарегистрирован [ 2018-05-29 16:41 ] · AF5693405BA63341216A0833DA5DFE29816D885C

Скачать .torrent

Скачать

11 KB

Статус: проверено
Скачан: 0 раз
Размер: 1,05 GB
Профиль [ЛС]
Показать сообщения:    

Текущее время: 26-Сен 10:56

Часовой пояс: UTC ± 0



Вы не можете начинать темы
Вы не можете отвечать на сообщения
Вы не можете редактировать свои сообщения
Вы не можете удалять свои сообщения
Вы не можете голосовать в опросах
Вы не можете прикреплять файлы к сообщениям
Вы можете скачивать файлы
Torrents24.ru открытый BitTorrent Torrents24.pl открытый BitTorrent CyberTorrent.ru открытый BitTorrent BtList.ru рейтинг BitTorrent трекеров Яндекс.Метрика