Статистика раздачи
Размер:  2,76 GB   |    Зарегистрирован:  3 месяца 21 день   |    Скачан:  0 раз

Полного источника не было: Никогда

 
   
 
 

Симка ®

Пол:
Не указан
Стаж:
7 месяцев 4 дня
Сообщений:
73

Поживем-увидим
Жанр: комедия
Год выпуска: 1985
Продолжительность: 01:32:24
Режиссёр: Александр Полынников
В ролях: К. Дворский, Анна Назарьева, Иван Бортник, Владимир Заманский, Сергей Проханов, Валентина Ананьина, Виктор Уральский
Описание: Деревенский подросток Алексей Горохов слывет чудаком и сумасбродом. Он полон невероятных идей, которые смешат всех, но на поверку оказываются не такими уж нелепыми
Доп. информация: Запись потока *.ts со спутника Экспресс АМ6, 53° в.д., ремукс в *.mkv программой VideoReDo.
Качество видео: DVB
Формат видео: MKV
Видео: MPEG Video, 1024x576 (16:9), 25,000 кадров/сек, 5 012 Кбит/сек
Аудио: MPEG Audio, 48,0 КГц, 256 Кбит/сек, 2 канала

MediaInfo

General
Unique ID : 297772051483737278436628319589927940489 (0xE004CFA153E17ECBDC4D80985C22F189)
Complete name : I:\НАШЕ_Л_Р\ПОЖИВЕМ УВИДИМ (Kultura 53).mkv
Format : Matroska
Format version : Version 2
File size : 2.76 GiB
Duration : 1 h 13 min
Overall bit rate mode : Variable
Overall bit rate : 5 375 kb/s
Writing application : Lavf52.64.2
Writing library : Lavf52.64.2
Video
ID : 1
Format : MPEG Video
Format version : Version 2
Format profile : Main@Main
Format settings : CustomMatrix / BVOP
Format settings, BVOP : Yes
Format settings, Matrix : Custom
Format settings, GOP : M=3, N=15
Format settings, picture st : Frame
Codec ID : V_MPEG2
Codec ID/Info : MPEG 1 or 2 Video
Duration : 1 h 13 min
Bit rate mode : Variable
Bit rate : 5 012 kb/s
Maximum bit rate : 15.0 Mb/s
Width : 720 pixels
Height : 576 pixels
Display aspect ratio : 16:9
Original display aspect rat : 16:9
Frame rate mode : Constant
Frame rate : 25.000 FPS
Standard : PAL
Color space : YUV
Chroma subsampling : 4:2:0
Bit depth : 8 bits
Scan type : Interlaced
Scan order : Top Field First
Compression mode : Lossy
Bits/(Pixel*Frame) : 0.483
Stream size : 2.57 GiB (93%)
Default : Yes
Forced : No
Audio
ID : 2
Format : MPEG Audio
Format version : Version 1
Format profile : Layer 2
Codec ID : A_MPEG/L2
Codec ID/Hint : MP2
Duration : 1 h 13 min
Bit rate mode : Constant
Bit rate : 256 kb/s
Channel(s) : 2 channels
Sampling rate : 48.0 kHz
Compression mode : Lossy
Delay relative to video : 2 ms
Stream size : 134 MiB (5%)
Language : English
Default : Yes
Forced : No
[cybertorrent.ru].t51464.torrent 
Торрент: Зарегистрирован [ 2018-05-29 16:41 ] · 3BA46233991A286BFFEE70A8B4AF4A9746D184AE

Скачать .torrent

Скачать

14 KB

Статус: проверено
Скачан: 0 раз
Размер: 2,76 GB
Профиль [ЛС]
Показать сообщения:    

Текущее время: 20-Сен 09:34

Часовой пояс: UTC ± 0



Вы не можете начинать темы
Вы не можете отвечать на сообщения
Вы не можете редактировать свои сообщения
Вы не можете удалять свои сообщения
Вы не можете голосовать в опросах
Вы не можете прикреплять файлы к сообщениям
Вы можете скачивать файлы
Torrents24.ru открытый BitTorrent Torrents24.pl открытый BitTorrent CyberTorrent.ru открытый BitTorrent BtList.ru рейтинг BitTorrent трекеров Яндекс.Метрика