Статистика раздачи
Размер:  743 MB   |    Зарегистрирован:  3 месяца 9 дней   |    Скачан:  0 раз
Сидов:  46  [  0 KB/s  ]   Личеров:  2  [  0 KB/s  ]  
 
   
 
 

lopster ®

Пол:
Не указан
Стаж:
3 месяца 9 дней
Сообщений:
612

Деревня Хлюпово выходит из Союза
Жанр: Комедия
Год выпуска: 1992
Продолжительность: 01:15:40
Режиссёр: Анатолий Вехотко
В ролях: Георгий Штиль, Сергей Исавнин, Анатолий Столбов, Любовь Тищенко, Михаил Солодовник, Игорь Ефимов, Нора Грякалова, Галина Сабурова, Екатерина Черняева, Александр Суснин, Борис Аракелов, Гелена Ивлиева, Николай Кузьмин, С(ергей?) Соколов, Ю. Поволяев(Вам знаком? Мне нет.) М.Семёнов (вообще в траурной рамке! Кто такой?)
Описание: Устав от постоянных ревизоров и наезжающих начальников, жители маленькой деревни Хлюпово решили отделиться от страны. Действие картины происходит во время августовского путча 1991 года, а некоторые персонажи сыграны двойниками известных политических деятелей...
Сэмпл: http://multi-up.com/1109190
Исходник: http://cybertorrent.ru/viewtopic.php?t=5361627
Формат видео: AVI
Качество видео: TVRip
Видео: XviD, 640х480, 25fps, 1234kbps
Аудио: MPEG Layer 3, 2ch, 44100Hz, 128kbps

MediaInfo

Общее
Полное имя : Derevna.Hlupovo.Vyhodit.Iz.Souza.1992.O.TVRip.700.CurHaJI.avi
Формат : AVI
Формат/Информация : Audio Video Interleave
Размер файла : 743 Мбайт
Продолжительность : 1 ч. 15 м.
Режим общего битрейта : Переменный
Общий поток : 1372 Кбит/сек
Название фильма : Derevna.Hlupovo.Vyhodit.Iz.Souza.1992.O.TVRip.700.CurHaJI
Библиотека кодирования : VirtualDub build 35491/release
Видео
Идентификатор : 0
Формат : MPEG-4 Visual
Профиль формата : Advanced Simple@L5
Параметр BVOP формата : 1
Параметр QPel формата : Нет
Параметр GMC формата : Без точки перехода
Параметр матрицы формата : Выборочная
Идентификатор кодека : XVID
Идентификатор кодека/Подсказка : XviD
Продолжительность : 1 ч. 15 м.
Битрейт : 1234 Кбит/сек
Ширина : 640 пикселей
Высота : 480 пикселей
Соотношение сторон : 4:3
Частота кадров : 25,000 кадров/сек
Цветовое пространство : YUV
Субдискретизация насыщенности : 4:2:0
Битовая глубина : 8 бит
Тип развёртки : Прогрессивная
Метод сжатия : С потерями
Бит/(Пиксели*Кадры) : 0.161
Размер потока : 668 Мбайт (90%)
Библиотека кодирования : XviD 73
Аудио
Идентификатор : 1
Формат : MPEG Audio
Версия формата : Version 1
Профиль формата : Layer 3
Режим : Joint stereo
Расширение режима : MS Stereo
Идентификатор кодека : 55
Идентификатор кодека/Подсказка : MP3
Продолжительность : 1 ч. 15 м.
Вид битрейта : Переменный
Битрейт : 128 Кбит/сек
Каналы : 2 канала
Частота : 44,1 КГц
Метод сжатия : С потерями
Размер потока : 69,3 Мбайт (9%)
Выравнивание : Разделение по промежуткам
Продолжительность промежутка : 40 мс. (1,00 видеокадр)
Время предзагрузки промежутка : 500 мс.

Скриншоты

[cybertorrent.ru].t515.torrent 
Торрент: Зарегистрирован [ 2018-02-15 15:48 ] · 47653E5AC37831048CC09A0016515AD9E8EC5A68

Скачать .torrent

Скачать

15 KB

Статус: проверено
Скачан: 0 раз
Размер: 743 MB
Профиль [ЛС]
Показать сообщения:    

Текущее время: 25-Май 08:51

Часовой пояс: UTC ± 0



Вы не можете начинать темы
Вы не можете отвечать на сообщения
Вы не можете редактировать свои сообщения
Вы не можете удалять свои сообщения
Вы не можете голосовать в опросах
Вы не можете прикреплять файлы к сообщениям
Вы можете скачивать файлы