Статистика раздачи
Размер:  2,9 GB   |    Зарегистрирован:  3 месяца 27 дней   |    Скачан:  0 раз

Полного источника не было: Никогда

 
   
 
 

Симка ®

Пол:
Не указан
Стаж:
7 месяцев 11 дней
Сообщений:
73

Берег его жизни (3 серии)- Жанр: историко-биографический
Год выпуска: 1984
Продолжительность: 03:10:51-Режиссёр: Юрий Соломин-В ролях:
Юрий Соломин, Людмила Титова, Всеволод Сафонов, Евгений Самойлов, Эммануил Виторган, Александр Голобородько, Борис Иванов, Руфина Нифонтова, Игорь Горбачёв, Евгений Весник, Владимир Кенигсон, Александр Вокач, Олег Куценко, Николай Верещенко, Петр Складчиков, Вячеслав Езепов, Елена Антонова, Алла Евдокимова, Лев Золотухин, Эрменгельд Коновалов, Дмитрий Писаренко, Павел Кашлаков, Виктор Портнов, Николай Федорцов
Описание:
Фильм рассказывает о жизни великого русского ученого, исследователя и первопроходца Николая Николаевича Миклухо-Маклая.-Исходник | Сэмпл | Кинопоиск-Качество видео: SATRip-AVC, спасибо TarasBilbo и Cheef mate за исходник.
Формат видео: MKV
Видео: x264 (High@L4.1); 710@757x572 25.000 fps; Display aspect ratio: 1.323:1; 1980 Kbps
Аудио: AC-3; 16 bits 48 Khz; 2.0ch 192 Kbps; CBR

MediaInfo

x264 log

avs [info]: 710x572p 16:15 @ 25/1 fps (cfr)
x264 [info]: using SAR=16/15
x264 [info]: using cpu capabilities: MMX2 SSE2Fast SSSE3 SSE4.2
x264 [info]: profile High, level 4.1
x264 [info]: frame I:1361 Avg QP:18.68 size: 40277
x264 [info]: frame P:59313 Avg QP:21.30 size: 19261
x264 [info]: frame B:225601 Avg QP:23.37 size: 7255
x264 [info]: consecutive B-frames: 1.3% 2.3% 5.2% 20.6% 16.1% 41.7% 7.7% 3.3% 1.1% 0.6% 0.1% 0.1%
x264 [info]: mb I I16..4: 3.5% 87.8% 8.7%
x264 [info]: mb P I16..4: 0.4% 12.8% 0.8% P16..4: 50.8% 22.2% 12.5% 0.2% 0.0% skip: 0.3%
x264 [info]: mb B I16..4: 0.0% 0.9% 0.1% B16..8: 47.7% 11.5% 2.0% direct:11.8% skip:26.0% L0:46.3% L1:39.8% BI:13.9%
x264 [info]: 8x8 transform intra:91.0% inter:75.8%
x264 [info]: direct mvs spatial:99.3% temporal:0.7%
x264 [info]: coded y,uvDC,uvAC intra: 94.2% 72.3% 24.9% inter: 37.8% 38.1% 3.5%
x264 [info]: i16 v,h,dc,p: 16% 16% 14% 54%
x264 [info]: i8 v,h,dc,ddl,ddr,vr,hd,vl,hu: 10% 14% 5% 8% 12% 12% 14% 11% 14%
x264 [info]: i4 v,h,dc,ddl,ddr,vr,hd,vl,hu: 10% 13% 2% 8% 14% 14% 16% 10% 14%
x264 [info]: i8c dc,h,v,p: 30% 32% 24% 14%
x264 [info]: Weighted P-Frames: Y:19.3% UV:3.6%
x264 [info]: ref P L0: 34.6% 11.5% 15.8% 7.4% 6.2% 4.6% 4.1% 2.5% 2.3% 2.0% 1.9% 1.7% 1.6% 1.4% 1.4% 1.0%
x264 [info]: ref B L0: 64.9% 12.1% 6.2% 3.5% 2.7% 2.2% 1.9% 1.2% 1.1% 1.0% 0.9% 0.8% 0.8% 0.5% 0.2%
x264 [info]: ref B L1: 93.6% 6.4%
x264 [info]: kb/s:1979.93
-General
Unique ID : 186556007765171779856471113559954982179 (0x8C5961528F922E2BB5E85299203C8523)
Complete name : Берег его жизни.1984.mkv
Format : Matroska
Format version : Version 2
File size : 2.90 GiB
Duration : 3 h 10 min
Overall bit rate : 2 174 kb/s
Encoded date : UTC 2018-05-17 09:55:40
Writing application : mkvmerge v7.8.0 ('River Man') 32bit built on Mar 27 2015 16:18:02
Writing library : libebml v1.3.1 + libmatroska v1.4.2
Video
ID : 1
Format : AVC
Format/Info : Advanced Video Codec
Format profile : High@L4.1
Format settings, CABAC : Yes
Format settings, ReFrames : 16 frames
Codec ID : V_MPEG4/ISO/AVC
Duration : 3 h 10 min
Bit rate : 1 980 kb/s
Width : 710 pixels
Height : 572 pixels
Display aspect ratio : 4:3
Original display aspect rat : 4:3
Frame rate mode : Constant
Frame rate : 25.000 FPS
Color space : YUV
Chroma subsampling : 4:2:0
Bit depth : 8 bits
Scan type : Progressive
Bits/(Pixel*Frame) : 0.195
Stream size : 2.58 GiB (89%)
Title : Берег его жизни.1984
Writing library : x264 core 152 r2851kMod ba24899
Encoding settings : cabac=1 / ref=16 / deblock=1:-3:-1 / analyse=0x3:0x133 / me=umh / subme=11 / psy=1 / fade_compensate=0.00 / psy_rd=1.01:0.10 / mixed_ref=1 / me_range=32 / chroma_me=1 / trellis=2 / 8x8dct=1 / cqm=0 / deadzone=21,11 / fast_pskip=0 / chroma_qp_offset=-3 / threads=12 / lookahead_threads=3 / sliced_threads=0 / nr=0 / decimate=0 / interlaced=0 / bluray_compat=0 / constrained_intra=0 / bframes=11 / b_pyramid=2 / b_adapt=2 / b_bias=0 / direct=3 / weightb=1 / open_gop=0 / weightp=2 / keyint=250 / keyint_min=25 / scenecut=40 / intra_refresh=0 / rc_lookahead=60 / rc=2pass / mbtree=0 / bitrate=1980 / ratetol=1.0 / qcomp=0.60 / qpmin=0 / qpmax=69 / qpstep=4 / cplxblur=20.0 / qblur=0.5 / vbv_maxrate=62500 / vbv_bufsize=78125 / nal_hrd=none / filler=0 / ip_ratio=1.35 / pb_ratio=1.30 / aq=1:0.80
Language : Russian
Default : Yes
Forced : No
Color range : Limited
Color primaries : BT.601 PAL
Transfer characteristics : BT.470 System B, BT.470 System G
Matrix coefficients : BT.601
Audio
ID : 2
Format : AC-3
Format/Info : Audio Coding 3
Mode extension : CM (complete main)
Format settings, Endianness : Big
Codec ID : A_AC3
Duration : 3 h 10 min
Bit rate mode : Constant
Bit rate : 192 kb/s
Channel(s) : 2 channels
Channel positions : Front: L R
Sampling rate : 48.0 kHz
Frame rate : 31.250 FPS (1536 spf)
Compression mode : Lossy
Stream size : 262 MiB (9%)
Title : AC-3; 16 bits 48 Khz; 2.0ch 192 Kbps; CBR
Language : Russian
Default : Yes
Forced : No
Menu
00:00:00.000 : ru:1 серия
01:04:33.240 : ru:2 серия
02:07:43.560 : ru:3 серия

Скриншоты

[cybertorrent.ru].t51527.torrent 
Торрент: Зарегистрирован [ 2018-05-29 16:41 ] · BDD97B171EFB647F06BD229D1EE0B97A4B06149A

Скачать .torrent

Скачать

15 KB

Статус: проверено
Скачан: 0 раз
Размер: 2,9 GB
Профиль [ЛС]
Показать сообщения:    

Текущее время: 26-Сен 11:00

Часовой пояс: UTC ± 0



Вы не можете начинать темы
Вы не можете отвечать на сообщения
Вы не можете редактировать свои сообщения
Вы не можете удалять свои сообщения
Вы не можете голосовать в опросах
Вы не можете прикреплять файлы к сообщениям
Вы можете скачивать файлы
Torrents24.ru открытый BitTorrent Torrents24.pl открытый BitTorrent CyberTorrent.ru открытый BitTorrent BtList.ru рейтинг BitTorrent трекеров Яндекс.Метрика