Статистика раздачи
Размер:  1,46 GB   |    Зарегистрирован:  3 месяца 7 дней   |    Скачан:  0 раз

Полного источника не было: Никогда

 
   
 
 

lopster ®

Пол:
Не указан
Стаж:
3 месяца 7 дней
Сообщений:
612

Раздолбай
Жанр: Боевик, комедия
Год выпуска: 2011
Продолжительность: 01:20:46
Режиссёр: Валерий Ибрагимов
В ролях: Николай Кудряшов, Юлия Куваева, Олег Сидоров, Филипп Величко, Евгений Савчук, Валерий Ибрагимов, Петр Капица, Николай Калмыков, Евгений Маканов, Сергей Куваев, Анатолий Карнаухов, Сергей Козновский, Сергей Синцов, Дмитрий Бекман, Георгий Гашокин
Описание: Она владелица собственного бизнеса, амбициозна, самодостаточна и не замужем. Ее компания участвует в тендере за лакомый кусок земли. Столкнувшись с конкурентами, она ищет себе надежную охрану. Он водитель и охранник, хороший парень, но ему нельзя доверить никаких поручений, потому что главный герой… раздолбай. В разгар перепетий когда угрожает опасность именно он приходит ей на помощь.
Доп. информация:
Автор релиза -
Источник аудио и видео для рипа - HDTV 1080i TS - моя запись с канала Наш Детектив HD


Сэмпл: https://yadi.sk/i/coEAJxK83SGBmU
Рекламы нет!
Качество видео: HDTVRip
Формат видео: AVI
Видео: XviD, 720x400 (16:9), 25.000 fps, 2130 kbps, 0.296 bit/pixel
Аудио: Русский AC3, 48000 Гц, 6ch, 448 kbps

MediaInfo

Общее
Полное имя : D:\Раздолбай.2011.HDTVRip-ylnian.avi
Формат : AVI
Формат/Информация : Audio Video Interleave
Размер файла : 1,46 Гбайт
Продолжительность : 1 ч. 20 м.
Общий поток : 2588 Кбит/сек
Программа кодирования : VirtualDubMod 1.5.10.2 (build 2540/release)
Библиотека кодирования : VirtualDubMod build 2540/release
Видео
Идентификатор : 0
Формат : MPEG-4 Visual
Профиль формата : Advanced Simple@L5
Настройки формата : BVOP1
Параметр BVOP формата : 1
Параметр QPel формата : Нет
Параметр GMC формата : Без точки перехода
Параметр матрицы формата : Default (MPEG)
Идентификатор кодека : XVID
Идентификатор кодека/Подсказка : XviD
Продолжительность : 1 ч. 20 м.
Битрейт : 2130 Кбит/сек
Ширина : 720 пикселей
Высота : 400 пикселей
Соотношение сторон : 16:9
Частота кадров : 25,000 кадров/сек
Цветовое пространство : YUV
Субдискретизация насыщенности : 4:2:0
Битовая глубина : 8 бит
Тип развёртки : Прогрессивная
Метод сжатия : С потерями
Бит/(Пиксели*Кадры) : 0.296
Размер потока : 1,20 Гбайт (82%)
Библиотека кодирования : XviD 67
Аудио
Идентификатор : 1
Формат : AC-3
Формат/Информация : Audio Coding 3
Идентификатор кодека : 2000
Продолжительность : 1 ч. 20 м.
Вид битрейта : Постоянный
Битрейт : 448 Кбит/сек
Каналы : 6 каналов
Расположение каналов : Front: L C R, Side: L R, LFE
Частота : 48,0 КГц
Частота кадров : 31,250 кадров/сек (1536 SPF)
Битовая глубина : 16 бит
Метод сжатия : С потерями
Размер потока : 259 Мбайт (17%)
Выравнивание : Разделение по промежуткам
Продолжительность промежутка : 40 мс. (1,00 видеокадр)
Время предзагрузки промежутка : 500 мс.
ServiceKind/String : Complete Main

Сравнение

Сравнение скриншотов с DVDRip - http://screenshotcomparison.com/comparison/131419/picture:2 - в моём релизе выше чёткость и резкость
[cybertorrent.ru].t516.torrent 
Торрент: Зарегистрирован [ 2018-02-15 15:48 ] · DCA0B1998476DCE7DE28673084675D678259FAB2

Скачать .torrent

Скачать

15 KB

Статус: проверено
Скачан: 0 раз
Размер: 1,46 GB
Профиль [ЛС]
Показать сообщения:    

Текущее время: 23-Май 07:18

Часовой пояс: UTC ± 0



Вы не можете начинать темы
Вы не можете отвечать на сообщения
Вы не можете редактировать свои сообщения
Вы не можете удалять свои сообщения
Вы не можете голосовать в опросах
Вы не можете прикреплять файлы к сообщениям
Вы можете скачивать файлы