Статистика раздачи
Размер:  2,17 GB   |    Зарегистрирован:  1 месяц 19 дней   |    Скачан:  0 раз

Полного источника не было: Никогда

 
   
 
 

Симка ®

Пол:
Не указан
Стаж:
5 месяцев 6 дней
Сообщений:
73

Суржекей - ангел смерти Жанр: драма, история
Студия: Казахфильм
Продолжительность: 02:08:04
Год выпуска: 1991
Перевод: Студийный (одноголосый закадровый)-Режиссёр: Дамир Манабаев
В ролях: Нурмухан Жантурин, Мейрман Нурекеев, Жанас Искаков, Бахытжан Альпеисов, Шамшагуль Мендиярова, Бибигуль Жардемалиева, Алиман Джангорозова-Описание: 1930-е годы, Казахстан. Неграмотный кочевник Суржекей становится «проводником» политики коллективизации. «Я для вас закон», кричит он и карает каждого, кто делает не так, как ему кажется верным.-
Семпл: https://www.sendspace.com/file/hwjmj7-Качество: DVB [Ел Арна] (эфир 25.05.2018)
Формат: TS
Видео: AVC, 720x576 (16:9) @ 1047x576, 25 fps, ~2109 kbps, 0.203 bit/pixel
Аудио: [RUS] MP2, 48 kHz, 2 ch, 192 kbps

Mediainfo

Общее
Идентификатор : 1 (0x1)
Полное имя : F:\Суржекей - ангел смерти (1991) [DVB].ts
Формат : MPEG-TS
Размер файла : 2,17 Гбайт
Продолжительность : 2 ч. 8 м.
Режим общего битрейта : Переменный
Общий поток : 2422 Кбит/сек
Видео
Идентификатор : 67 (0x43)
Идентификатор меню : 1 (0x1)
Формат : AVC
Формат/Информация : Advanced Video Codec
Профиль формата : High@L3
Параметр CABAC формата : Да
Параметр RefFrames формата : 3 кадра
Идентификатор кодека : 27
Продолжительность : 2 ч. 8 м.
Битрейт : 2109 Кбит/сек
Ширина : 720 пикселей
Высота : 576 пикселей
Соотношение сторон : 16:9
Частота кадров : 25,000 кадров/сек
Стандарт вещания : Component
Цветовое пространство : YUV
Субдискретизация насыщенности : 4:2:0
Битовая глубина : 8 бит
Тип развёртки : Чересстрочная
Метод сохранения типа развёртки : Раздельные поля
Порядок развёртки : Верхнее поле первое
Бит/(Пиксели*Кадры) : 0.203
Размер потока : 1,89 Гбайт (87%)
Цветовой диапазон : Limited
Основные цвета : BT.601 PAL
Характеристики трансфера : BT.470 System B, BT.470 System G
Коэффициенты матрицы : BT.470 System B, BT.470 System G
Аудио
Идентификатор : 68 (0x44)
Идентификатор меню : 1 (0x1)
Формат : MPEG Audio
Версия формата : Version 1
Профиль формата : Layer 2
Идентификатор кодека : 3
Продолжительность : 2 ч. 8 м.
Вид битрейта : Постоянный
Битрейт : 192 Кбит/сек
Каналы : 2 канала
Частота : 48,0 КГц
Метод сжатия : С потерями
Размер потока : 176 Мбайт (8%)
Язык : English

Скриншоты

[cybertorrent.ru].t51690.torrent 
Торрент: Зарегистрирован [ 2018-06-02 14:03 ] · D1B27BF1CF1DC41B741EB2EF56C3924FC1F7CD46

Скачать .torrent

Скачать

11 KB

Статус: проверено
Скачан: 0 раз
Размер: 2,17 GB
Профиль [ЛС]
Показать сообщения:    

Текущее время: 21-Июл 15:17

Часовой пояс: UTC ± 0



Вы не можете начинать темы
Вы не можете отвечать на сообщения
Вы не можете редактировать свои сообщения
Вы не можете удалять свои сообщения
Вы не можете голосовать в опросах
Вы не можете прикреплять файлы к сообщениям
Вы можете скачивать файлы