Статистика раздачи
Размер:  1,36 GB   |    Зарегистрирован:  3 месяца 7 дней   |    Скачан:  0 раз
Сидов:  256  [  0 KB/s  ]   Личеров:  18  [  0 KB/s  ]  
 
   
 
 

lopster ®

Пол:
Не указан
Стаж:
3 месяца 7 дней
Сообщений:
612

Гостья из прошлого
Жанр: мелодрама
Год выпуска: 2017
Продолжительность: 01:27:30
Режиссёр: Вячеслав Лавров
В ролях: Сергей Губанов, Кристина Кузьмина, Татьяна Абраменко, Илья Глазунов, Екатерина Решетникова

Описание: Андрей и Татьяна в браке уже несколько лет. Они счастливы и очень хотят детей, но Татьяна никак не может забеременеть, а привлекать суррогатную мать или усыновлять ребенка супруги не хотят. Неожиданно к Андрею на работу приходит некая Ольга. Она предъявляет Андрею мальчика – Никиту, и утверждает, что тот его сын. Андрей решает сделать тест ДНК, и, в ожидании результатов, поселяет Ольгу и Никиту у себя на даче. Боясь расстроить жену, он решает ничего не рассказывать Татьяне. Тем временем Таня замечает, что муж слишком часто стал ездить на дачу. Она подозревает, что у Андрея появилась любовница, поэтому едет на дачу сама…
Кинопоиск
Sample
Качество видео: WEB-DLRip - Files-x
Формат видео: AVI
Видео: 720x400 (1.80:1), 25 fps, XviD build 73 ~2028 kbps avg, 0.282 bit/pixel
Аудио: 48 kHz, AC3 Dolby Digital, 2/0 (L,R) ch, ~192 kbps

MediaInfo

General
Complete name : D:\Гостья из прошлого.2017.WEB-DLRip.Files-x.avi
Format : AVI
Format/Info : Audio Video Interleave
File size : 1.36 GiB
Duration : 1h 27mn
Overall bit rate : 2 230 Kbps
Writing application : VirtualDubMod 1.5.10.3 | www.virtualdub-fr.org || (build 2550/release)
Writing library : VirtualDubMod build 2550/release
Video
ID : 0
Format : MPEG-4 Visual
Format profile : Advanced Simple@L5
Format settings, BVOP : 1
Format settings, QPel : No
Format settings, GMC : No warppoints
Format settings, Matrix : Custom
Codec ID : XVID
Codec ID/Hint : XviD
Duration : 1h 27mn
Bit rate : 2 028 Kbps
Width : 720 pixels
Height : 400 pixels
Display aspect ratio : 16:9
Frame rate : 25.000 fps
Color space : YUV
Chroma subsampling : 4:2:0
Bit depth : 8 bits
Scan type : Progressive
Compression mode : Lossy
Bits/(Pixel*Frame) : 0.282
Stream size : 1.24 GiB (91%)
Writing library : XviD 73
Audio
ID : 1
Format : AC-3
Format/Info : Audio Coding 3
Mode extension : CM (complete main)
Format settings, Endianness : Big
Codec ID : 2000
Duration : 1h 27mn
Bit rate mode : Constant
Bit rate : 192 Kbps
Channel count : 2 channels
Channel positions : Front: L R
Sampling rate : 48.0 KHz
Bit depth : 16 bits
Compression mode : Lossy
Stream size : 120 MiB (9%)
Alignment : Split accross interleaves
Interleave, duration : 40 ms (1.00 video frame)
Interleave, preload duration : 500 ms

Скриншот c названием фильма

Скриншоты


[cybertorrent.ru].t517.torrent 
Торрент: Зарегистрирован [ 2018-02-15 15:48 ] · 508585417AF05F24D1E1AEB9164C3492E3A3581A

Скачать .torrent

Скачать

14 KB

Статус: проверено
Скачан: 0 раз
Размер: 1,36 GB
Профиль [ЛС]
Показать сообщения:    

Текущее время: 23-Май 07:23

Часовой пояс: UTC ± 0



Вы не можете начинать темы
Вы не можете отвечать на сообщения
Вы не можете редактировать свои сообщения
Вы не можете удалять свои сообщения
Вы не можете голосовать в опросах
Вы не можете прикреплять файлы к сообщениям
Вы можете скачивать файлы