Статистика раздачи
Размер:  693 MB   |    Зарегистрирован:  6 месяцев 11 дней   |    Скачан:  0 раз

Полного источника не было: Никогда

 
   
 
 

Симка ®

Пол:
Не указан
Стаж:
9 месяцев 27 дней
Сообщений:
47

Старая черешня
Жанр: Драма
Год выпуска: 1972
Продолжительность: 00:41:01

Режиссёр: Тофик Исмайлов
В ролях: Севиндж Исмайлова, Солтан Мамедов, Мамедрза Шейхзаманов, Лейла Бедирбейли, Мухтар Авшаров, Тариэль Касумов, Дилфуза Абдуллаева, Земфира Исмаилова, Фархад Исмайлов
Описание: По мотивам одноименного рассказа Акрама Айлисли.
Действие фильма происходит в одной из отдалённых азербайджанских деревень в военные годы.
Это рассказ о жизни детей, отцы которых ушли на фронт и о добрых людях, которые посвятили себя воспитанию этих детей.
Во дворе одного дома росла старая черешня, ставшая деревенской реликвией.
И что бы ни случалось, всегда возле нее собирались жители и играли дети...
Доп. информация:

Качество видео: TVRip
Формат видео: AVI
Видео: 720x544 (1.32:1), 25 fps, XviD MPEG-4 ~2224 kbps avg, 0.23 bit/pixel
Аудио: 48 kHz, MPEG Layer 3, 2 ch, ~128.00 kbps avg

MediaInfo

Complete name : Staraya.chereshnya.1972.TVRip.fenixclub.avi
Format : AVI
Format/Info : Audio Video Interleave
File size : 693 MiB
Duration : 41mn 1s
Overall bit rate : 2 362 Kbps
Writing application : VirtualDubModRus 1.5.10.2 (build 2542/release)
Writing library : VirtualDub build 32842/release
Video
ID : 0
Format : MPEG-4 Visual
Format profile : Advanced Simple@L5
Format settings, BVOP : Yes
Format settings, QPel : No
Format settings, GMC : No warppoints
Format settings, Matrix : Default (MPEG)
Codec ID : XVID
Codec ID/Hint : XviD
Duration : 41mn 1s
Bit rate : 2 224 Kbps
Width : 720 pixels
Height : 544 pixels
Display aspect ratio : 4:3
Frame rate : 25.000 fps
Color space : YUV
Chroma subsampling : 4:2:0
Bit depth : 8 bits
Scan type : Progressive
Compression mode : Lossy
Bits/(Pixel*Frame) : 0.227
Stream size : 653 MiB (94%)
Writing library : XviD 73
Audio
ID : 1
Format : MPEG Audio
Format version : Version 1
Format profile : Layer 3
Mode : Joint stereo
Mode extension : MS Stereo
Codec ID : 55
Codec ID/Hint : MP3
Duration : 41mn 1s
Bit rate mode : Constant
Bit rate : 128 Kbps
Channel(s) : 2 channels
Sampling rate : 48.0 KHz
Compression mode : Lossy
Stream size : 37.6 MiB (5%)
Alignment : Split accross interleaves
Interleave, duration : 40 ms (1.00 video frame)
Interleave, preload duration : 500 ms

Скриншоты



[cybertorrent.ru].t51739.torrent 
Торрент: Зарегистрирован [ 2018-06-03 14:32 ] · FDDF5F3EC8D5A985ACBC7F9049D5FDC28D29D659

Скачать .torrent

Скачать

14 KB

Статус: проверено
Скачан: 0 раз
Размер: 693 MB
Профиль [ЛС]
Показать сообщения:    

Текущее время: 15-Дек 08:38

Часовой пояс: UTC ± 0



Вы не можете начинать темы
Вы не можете отвечать на сообщения
Вы не можете редактировать свои сообщения
Вы не можете удалять свои сообщения
Вы не можете голосовать в опросах
Вы не можете прикреплять файлы к сообщениям
Вы можете скачивать файлы
Torrents24.ru открытый BitTorrent Torrents24.pl открытый BitTorrent CyberTorrent.ru открытый BitTorrent BtList.ru рейтинг BitTorrent трекеров Яндекс.Метрика