BitTorrent клиенты



Боксер / Boologam / Bhooloham / Bhaigiri 2 (Н. Калянакришнан / N. Kalyanakrishnan) [2015, Индия, боевик, WEBRip] MVO (МАТЧ!) + Tam

Ответить на тему
Статистика раздачи
Размер:  1,46 GB   |    Зарегистрирован:  6 месяцев 3 дня   |    Скачан:  0 раз

Полного источника не было: Никогда

 
   
 
 
Автор Сообщение

Monk ®

Пол: Не указан

Стаж: 1 год

Сообщений: 727

Создавать темы 19-Авг-2018 15:42

[Цитировать]

Боксер / Boologam / Bhooloham / Bhaigiri 2
Страна: Индия
Жанр: боевик
Год выпуска: 2015
Продолжительность: 02:21:39
Перевод: Профессиональный (многоголосый закадровый) МАТЧ!
Субтитры: нет
Оригинальная аудиодорожка: тамильский
Режиссер: Н. Калянакришнан / N. Kalyanakrishnan
В ролях: Джаям Рави
Триша Кришнан
Пракаш Радж
Нэйтан Джонс
Понваннан
Шанмугха Раджан
L.S. Rajesh
Арпит Ранка
Бала Сингх
Чаамс
Описание: Одному магнату в голову пришла просто гениальная идея, он создал уникальное телешоу. Его будут показывать в прямом эфире и каждый желающий сможет посмотреть трансляцию по телевизору или в интернете. Состязание на ринге, только лучшие из лучших боксёров готовы побороться за главный приз. А теперь самое время пригласить на ринг двух заядлых соперников - юных сыновей Арумугама и Бхулохама, которые просто ненавидят друг друга.Они представляют две сильные династии, отцы в молодости выходили на ринг и соревновались между собой. Создатели сделали хорошую ставку, шоу должно получиться просто отменным. Отец Бхулохама покончил с собой после проигрыша, и теперь парень не остановится ни перед чем. Он готов отомстить, он так долго тренировался, чтобы выйти на этот ринг.Каждый из них приложит максимум усилий, чтобы получить заветный приз. На кон поставлено слишком многое ...
Сэмпл: http://multi-up.com/1206519
Качество видео: WEBRip
Формат видео: AVI
Видео: MPEG4, XviD, 720x304 (2.35:1), 24.000 fps, 1 076 Kbps (0.205 bit/pixel)
Аудио: AC-3, 48.0 KHz, 2 ch, 192 Kbps, CBR - русский
Аудио 2: AC-3, 48.0 KHz, 2 ch, 192 Kbps, CBR - тамильский

MediaInfo

Общее
Полное имя : M:\Боксер.avi
Формат : AVI
Формат/Информация : Audio Video Interleave
Размер файла : 1,46 Гбайт
Продолжительность : 2 ч. 21 м.
Общий поток : 1474 Кбит/сек
Название фильма : Боксер / Boologam / Bhooloham / Bhaigiri 2 (2015)
Программа кодирования : VirtualDubMod 1.5.10.2 (build 2540/release)
Библиотека кодирования : VirtualDubMod build 2540/release
Примечание : miha2154
Видео
Идентификатор : 0
Формат : MPEG-4 Visual
Профиль формата : Advanced Simple@L5
Настройки формата : BVOP1 / Custom Matrix
Параметр BVOP формата : 1
Параметр QPel формата : Нет
Параметр GMC формата : Без точки перехода
Параметр матрицы формата : Выборочная
Идентификатор кодека : XVID
Идентификатор кодека/Подсказка : XviD
Продолжительность : 2 ч. 21 м.
Битрейт : 1076 Кбит/сек
Ширина : 720 пикселей
Высота : 304 пикселя
Соотношение сторон : 2,35:1
Частота кадров : 24,000 кадра/сек
Цветовое пространство : YUV
Субдискретизация насыщенности : 4:2:0
Битовая глубина : 8 бит
Тип развёртки : Прогрессивная
Метод сжатия : С потерями
Бит/(Пиксели*Кадры) : 0.205
Размер потока : 1,06 Гбайт (73%)
Библиотека кодирования : XviD 65
Аудио #1
Идентификатор : 1
Формат : AC-3
Формат/Информация : Audio Coding 3
Идентификатор кодека : 2000
Продолжительность : 2 ч. 21 м.
Вид битрейта : Постоянный
Битрейт : 192 Кбит/сек
Каналы : 2 канала
Расположение каналов : Front: L R
Частота : 48,0 КГц
Частота кадров : 31,250 кадров/сек (1536 SPF)
Битовая глубина : 16 бит
Метод сжатия : С потерями
Размер потока : 195 Мбайт (13%)
Выравнивание : Разделение по промежуткам
Продолжительность промежутка : 42 мс. (1,00 видеокадр)
Время предзагрузки промежутка : 500 мс.
Заголовок : Профессиональный (многоголосый, закадровый) МАТЧ!
ServiceKind/String : Complete Main
Аудио #2
Идентификатор : 2
Формат : AC-3
Формат/Информация : Audio Coding 3
Идентификатор кодека : 2000
Продолжительность : 2 ч. 21 м.
Вид битрейта : Постоянный
Битрейт : 192 Кбит/сек
Каналы : 2 канала
Расположение каналов : Front: L R
Частота : 48,0 КГц
Частота кадров : 31,250 кадров/сек (1536 SPF)
Битовая глубина : 16 бит
Метод сжатия : С потерями
Размер потока : 195 Мбайт (13%)
Выравнивание : Разделение по промежуткам
Продолжительность промежутка : 42 мс. (1,00 видеокадр)
Время предзагрузки промежутка : 500 мс.
Заголовок : Тамильский
ServiceKind/String : Complete Main

Скриншот c названием фильма

Скриншоты


[cybertorrent.ru].t51767.torrent 
Торрент: Зарегистрирован [ 2018-08-19 15:45 ] · 905FB9AEA743C43A76C7A98A9B3E218FE8602774

Скачать .torrent

Скачать

15 KB

Статус: проверено
Скачан: 0 раз
Размер: 1,46 GB
terms.php
[Профиль] [ЛС]
Показать сообщения:    
Ответить на тему

Текущее время: 23-Фев 15:37

Часовой пояс: UTC + 3



Вы не можете начинать темы
Вы не можете отвечать на сообщения
Вы не можете редактировать свои сообщения
Вы не можете удалять свои сообщения
Вы не можете голосовать в опросах
Вы не можете прикреплять файлы к сообщениям
Вы можете скачивать файлы