Статистика раздачи
Размер:  2,39 GB   |    Зарегистрирован:  3 месяца 6 дней   |    Скачан:  0 раз

Полного источника не было: Никогда

Личеров:  1  [  0 KB/s  ]  
 
   
 
 

lopster ®

Пол:
Не указан
Стаж:
3 месяца 6 дней
Сообщений:
612

На кого Бог пошлет
Жанр: Комедия
Год выпуска: 1994
Продолжительность: 01:12:13
Режиссёр: Владимир Зайкин
В ролях: Лариса Удовиченко, Станислав Садальский, Леонид Торкиани, Мария Лобачева, Сергей Мигицко, Евгений Лебедев, Игорь Дмитриев, Михаил Вассербаум, Владимир Зайкин, Кира Крейлис-Петрова, Игорь Головин (II), Валентина Егоренкова, Ирина Основина, Наталья Сорокина, В. Чекстер, Андрей Чуманов, Юлия Солохина
Описание: Начало 70-х... Ленинградка Марина Родионова решилась зачать ребенка от донора. Подросший сын легко поверил в легенду о герое-отце, погибшем при выполнении служебного долга. Став студентом, сынуля узнал о своем истинном происхождении и даже вычислил папу. Им оказался профессор Павел Константинович Хлюздин, который почему-то не взлюбил подружку юного героя. Чтобы смягчить нрав профессора и получить "зачет", молодая пара делает все возможное, чтобы мама и папа наконец встретились и полюбили друг друга.
Доп. информация: Оцифровка VHS (личный архив) и получение VHSRip alenavova
Эксклюзив для rutracker.org. При размещении данного релиза на других сайтах ссылка на автора alenavova обязательна
Релиз
Сэмпл: https://yadi.sk/i/e868KCgR3SJiwr
Качество видео: VHSRip
Формат видео: MPEG-PS
Видео: MPEG2 Video 720x576 (4:3) 25fps 4380kbps
Аудио: MPEG Audio 48000Hz stereo 256kbps

MediaInfo

На кого бог пошлет [by alenavova].mpg
Format : MPEG-PS
File size : 2.39 GiB
Duration : 1 h 12 min
Overall bit rate mode : Constant
Overall bit rate : 4 742 kb/s
Video
ID : 224 (0xE0)
Format : MPEG Video
Format version : Version 2
Format profile : Main@Main
Format settings, BVOP : Yes
Format settings, Matrix : Custom
Format settings, GOP : M=3, N=12
Format settings, picture struc : Frame
Duration : 1 h 12 min
Bit rate mode : Constant
Bit rate : 4 380 kb/s
Width : 720 pixels
Height : 576 pixels
Display aspect ratio : 4:3
Frame rate : 25.000 FPS
Standard : PAL
Color space : YUV
Chroma subsampling : 4:2:0
Bit depth : 8 bits
Scan type : Interlaced
Scan order : Top Field First
Compression mode : Lossy
Bits/(Pixel*Frame) : 0.422
Time code of first frame : 00:00:00:00
Time code source : Group of pictures header
GOP, Open/Closed : Open
GOP, Open/Closed of first fram : Closed
Stream size : 2.22 GiB (93%)
Audio
ID : 192 (0xC0)
Format : MPEG Audio
Format version : Version 1
Format profile : Layer 2
Duration : 1 h 12 min
Bit rate mode : Constant
Bit rate : 256 kb/s
Channel(s) : 2 channels
Sampling rate : 48.0 kHz
Compression mode : Lossy
Stream size : 132 MiB (5%)

Скриншоты


[cybertorrent.ru].t518.torrent 
Торрент: Зарегистрирован [ 2018-02-15 15:48 ] · BCEE8EB4509452EBC8608A9A938F33F63DBC8732

Скачать .torrent

Скачать

12 KB

Статус: проверено
Скачан: 0 раз
Размер: 2,39 GB
Профиль [ЛС]
Показать сообщения:    

Текущее время: 21-Май 19:01

Часовой пояс: UTC ± 0



Вы не можете начинать темы
Вы не можете отвечать на сообщения
Вы не можете редактировать свои сообщения
Вы не можете удалять свои сообщения
Вы не можете голосовать в опросах
Вы не можете прикреплять файлы к сообщениям
Вы можете скачивать файлы