Статистика раздачи
Размер:  1,46 GB   |    Зарегистрирован:  3 месяца 11 дней   |    Скачан:  0 раз

Полного источника не было: Никогда

 
   
 
 

lopster ®

Пол:
Не указан
Стаж:
3 месяца 11 дней
Сообщений:
612

Мифы
Жанр: комедия
Год выпуска: 2017
Продолжительность: 01:33:19
Режиссёр: Александр Молочников
В ролях: Яннис Пападопулос, Паулина Андреева, Сергей Безруков, Виктория Исакова, Ирина Розанова, Павел Ворожцов, Фёдор Бондарчук, Максим Суханов, Милош Бикович, Ксения Раппопорт, Игорь Верник, Вадим Верник, Андрей Смоляков, Надежда Маркина, Иван Ургант, Светлана Устинова, Алексей Агранович, Рената Пиотровски, Михаил Рахлин, Ирина Пегова

Описание: Последняя надежда русского кино, продюсер и режиссер Федор, торчит денег за музыкальный клип браткам из 90-х. Артист Сергей сыграл всех от Иисуса Христа до белочки. У Сергея кончились роли, он в депрессии, и не знает, как жить дальше. Телеведущий страны номер один, Иван, не может перестать шутить в обычной жизни. Девушка Ивана не понимает, почему он смешит ее за завтраком, в постели и даже на похоронах. Ничего не напоминает?
Нищий иностранец по чистой случайности попадает в самую гущу жизни богатых и знаменитых. Выясняется, что все наши представления о жизни звезд — мифы. На самом деле все гораздо хуже. Пытаясь помочь звездам решить их проблемы, наш герой влюбляется в жену Большого градоначальника и решает сделать все, чтобы похитить ее с Московского Олимпа.


Sample
Качество видео: WEB-DLRip
Формат видео: AVI
Видео: 720x304 (2.37:1), 23.976 fps, XviD build 50 ~1847 kbps avg, 0.35 bit/pixel
Аудио: 48 kHz, AC3 Dolby Digital, 3/2 (L,C,R,l,r) + LFE ch, ~384 kbps

MediaInfo

General
Complete name : D:\Мифы 2017 WEB-DLRip.avi
Format : AVI
Format/Info : Audio Video Interleave
File size : 1.46 GiB
Duration : 1h 33mn
Overall bit rate : 2 241 Kbps
Writing application : VirtualDubMod 1.5.10.3 | www.virtualdub-fr.org || (build 2550/release)
Writing library : VirtualDubMod build 2550/release
Video
ID : 0
Format : MPEG-4 Visual
Format profile : Advanced Simple@L5
Format settings, BVOP : 1
Format settings, QPel : No
Format settings, GMC : No warppoints
Format settings, Matrix : Default (MPEG)
Codec ID : XVID
Codec ID/Hint : XviD
Duration : 1h 33mn
Bit rate : 1 848 Kbps
Width : 720 pixels
Height : 304 pixels
Display aspect ratio : 2.35:1
Frame rate : 23.976 fps
Color space : YUV
Chroma subsampling : 4:2:0
Bit depth : 8 bits
Scan type : Progressive
Compression mode : Lossy
Bits/(Pixel*Frame) : 0.352
Stream size : 1.20 GiB (82%)
Writing library : XviD 1.2.1 (UTC 2008-12-04)
Audio
ID : 1
Format : AC-3
Format/Info : Audio Coding 3
Mode extension : CM (complete main)
Format settings, Endianness : Big
Codec ID : 2000
Duration : 1h 33mn
Bit rate mode : Constant
Bit rate : 384 Kbps
Channel count : 6 channels
Channel positions : Front: L C R, Side: L R, LFE
Sampling rate : 48.0 KHz
Bit depth : 16 bits
Compression mode : Lossy
Stream size : 256 MiB (17%)
Alignment : Split accross interleaves
Interleave, duration : 42 ms (1.00 video frame)
Interleave, preload duration : 500 ms

Скриншот c названием фильма

Скриншоты


[cybertorrent.ru].t519.torrent 
Торрент: Зарегистрирован [ 2018-02-15 15:48 ] · 60E6F9CCBA26DEE1699419FE3AD0EA56D4C56B91

Скачать .torrent

Скачать

15 KB

Статус: проверено
Скачан: 0 раз
Размер: 1,46 GB
Профиль [ЛС]
Показать сообщения:    

Текущее время: 27-Май 01:30

Часовой пояс: UTC ± 0



Вы не можете начинать темы
Вы не можете отвечать на сообщения
Вы не можете редактировать свои сообщения
Вы не можете удалять свои сообщения
Вы не можете голосовать в опросах
Вы не можете прикреплять файлы к сообщениям
Вы можете скачивать файлы